[Запись прямой трансляции концерта Земфиры 14.12.13 Live @ Лужники, Москва (2013) [720р], 2013, Россия, Rock, HDRip]

Ответить на тему
 

herman ®

Стаж: 1 год 8 месяцев

Сообщений: 6

Симпатии: 10

Запись прямой трансляции концерта Земфиры 14.12.13 Live @ Лужники, Москва (2013) [720р]
Страна: Россия
Жанр: Rock
Год выпуска: 2013
Продолжительность: 02:00:12
Доп. информация: Концерт Земфиры 14.12.2013 - 14 декабря в ГЦКЗ "Россия" в Лужниках состоялся концерт Земфиры, это был заключительный концерт тура, который был приурочен выходу шестой пластинке певицы "Жить в твоей голове". Всего, певица Zemfira дала более 50-ти концертов в российских и европейских городах. Пластинка вышла 10 месяцев назад, 14 февраля 2013 года и уже на следующий день начался тур, первый концерт состоялся в Томске.
Треклист:
01. Без шансов
02. Деньги
03. Похоронила
04. Река
05. Кувырок
06. Жить в твоей голове
07. В метро
08. Мачо
09. Рассветы
10. ЛКСС
11. Самолет
12. У нас отросли волосы
13. Чайка
14. Кофе вино
15. Прогулка
16. Итоги
17. Почему?
18. ПММЛ
19. Хочешь?
20. Ариведерчи
21. Искала
22. Блюз
23. Мы разбиваемся
Качество видео: HDRip
Формат видео: MP4
Видео: Input Type : AVC1(GVC) Input Size : 1280 x 720 Output Type : YV12 Output Size : 1280 x 720 FrameRate(Frame/sec) : 0.00 (25.00)
Аудио: SampleRate(Sample/sec) : 44100 BitRate(Bit/sample) : 16 Channels : 2 KBitRate(KBit/sec) : 191

MediaInfo

General
Complete name : F:\Земфира - Концерт в Лужниках (2013) 720p.mp4
Format : MPEG-4
Format profile : Base Media / Version 2
Codec ID : mp42 (isom/mp42)
File size : 2.14 GiB
Duration : 2h 0mn
Overall bit rate mode : Variable
Overall bit rate : 2 555 Kbps
Encoded date : UTC 2013-12-13 23:37:52
Tagged date : UTC 2013-12-13 23:37:52
gsst : 0
gstd : 7212140
gssd : B4A7DAEA2HH1387078798096578
gshh : r7---sn-tt17rn7d.googlevideo.com
Video
ID : 1
Format : AVC
Format/Info : Advanced Video Codec
Format profile : [email protected]
Format settings, CABAC : Yes
Format settings, ReFrames : 1 frame
Codec ID : avc1
Codec ID/Info : Advanced Video Coding
Duration : 2h 0mn
Bit rate : 2 360 Kbps
Maximum bit rate : 8 670 Kbps
Width : 1 280 pixels
Height : 720 pixels
Display aspect ratio : 16:9
Frame rate mode : Constant
Frame rate : 25.000 fps
Color space : YUV
Chroma subsampling : 4:2:0
Bit depth : 8 bits
Scan type : Progressive
Bits/(Pixel*Frame) : 0.102
Stream size : 1.98 GiB (92%)
Tagged date : UTC 2013-12-13 23:45:31
Audio
ID : 2
Format : AAC
Format/Info : Advanced Audio Codec
Format profile : LC
Codec ID : 40
Duration : 2h 0mn
Bit rate mode : Variable
Bit rate : 192 Kbps
Maximum bit rate : 202 Kbps
Channel(s) : 2 channels
Channel positions : Front: L R
Sampling rate : 44.1 KHz
Frame rate : 43.066 fps (1024 spf)
Compression mode : Lossy
Stream size : 165 MiB (8%)
Title : IsoMedia File Produced by Google, 5-11-2011
Encoded date : UTC 2013-12-13 23:42:27
Tagged date : UTC 2013-12-13 23:45:31

Скриншоты



Создавать темы 11-Дек-2015 20:34

[Профиль]  [ЛС] 
Показать сообщения:    
Ответить на тему

Текущее время: 21-Авг 04:16

Часовой пояс: UTC + 5



Вы не можете начинать темы
Вы не можете отвечать на сообщения
Вы не можете редактировать свои сообщения
Вы не можете удалять свои сообщения
Вы не можете голосовать в опросах
Вы не можете прикреплять файлы к сообщениям
Вы не можете скачивать файлы