Рик и Морти / Rick and Morty / Сезон: 2 / Серии: 1-10 (10) (Джастин Ройланд / Justin Roiland) [2015, Для взрослых, Комедия, Мультсериалы, Фантастика, WEB-DL 720p] VO (Сыендук)

Ответить на тему
 

yarik ®

Стаж: 4 года 6 месяцев

Сообщений: 225

Симпатии: 123

Рик и Морти / Rick and Morty Название: Рик и Морти
Оригинальное название: Rick and Morty
Год выхода: 2015
Сезон: 2
Серии: 1-10 (из 10)
Жанр: Для взрослых, Комедия, Мультсериалы, Фантастика
Страна: США
Продолжительность: 10 x ~ 00:22:00
Перевод: Евгений Спицын / dirty.ru
Озвучка: Любительская (одноголосая, закадровая) - Сыендук
Русские субтитры: нет
Режиссер: Пит Мишелс, Джон Райс, Джастин Ройланд
В ролях: Джастин Ройланд, Спенсер Грэммер, Сара Чок, Крис Парнелл, Джесс Харнелл, Фил Хендри, Брэндон Джонсон, Эрик Бауза, Мелик Бергер, Дэна Карви
Описание: Рик и Морти - американский, научно-фантастический комедийно-приключенческий мультсериал. В центре внимания - неунывающая парочка, состоящая из внука-школьника и дедушки-ученого. Вместе они совершат много увлекательных путешествий и докажут существование невероятных явлений.
Рейтинг:  
Качество: WEB-DL 720p
Видео: MPEG-4 AVC, ~ 3500 Кбит/с, 1280x720
Аудио #1: AC3, 2 ch, 192 Кбит/с | Русский
Аудио #2: AC3, 2 ch, 192 Кбит/с | Английский

Список серий

  • «A Rickle In Time»
  • «Mortynight Run»
  • «Auto Erotic Assimilation»
  • «Total Rickall»
  • «Get Schwifty»
  • «The Ricks Must Be Crazy»
  • «Big Trouble In Little Sanchez»
  • «Interdimensional Cable 2: Tempting Fate»
  • «Look Who's Purging Now»
  • «The Wedding Squanchers»

Скриншоты

MediaInfo

General
Unique ID                                : 246129405703618871264204814401412294992 (0xB92ACC9C8ED01F1AADA34502FC906950)
Complete name                            : /run/media/evgeniy/A64094C74094A01B/Videos/Рик и Морти/Сезон 2/Rick.and.Morty.S02E01.720p.mkv
Format                                   : Matroska
Format version                           : Version 2
File size                                : 466 MiB
Duration                                 : 23mn 14s
Overall bit rate                         : 2 805 Kbps
Movie name                               : Rick and Morty S02E01 - A Rickle in Time
Encoded date                             : UTC 2015-08-10 23:19:56
Writing application                      : mkvmerge v4.2.0 ('No Talking') сборка от Jul 28 2010 18:38:23
Writing library                          : libebml v1.0.0 + libmatroska v1.0.0
Video
ID                                       : 1
Format                                   : AVC
Format/Info                              : Advanced Video Codec
Format profile                           : [email protected]
Format settings, CABAC                   : Yes
Format settings, ReFrames                : 9 frames
Codec ID                                 : V_MPEG4/ISO/AVC
Duration                                 : 23mn 14s
Bit rate                                 : 2 493 Kbps
Width                                    : 1 280 pixels
Height                                   : 720 pixels
Display aspect ratio                     : 16:9
Frame rate mode                          : Constant
Frame rate                               : 23.976 fps
Color space                              : YUV
Chroma subsampling                       : 4:2:0
Bit depth                                : 8 bits
Scan type                                : Progressive
Bits/(Pixel*Frame)                       : 0.113
Stream size                              : 414 MiB (89%)
Title                                    : English NTSC WEBRip 720p x264
Writing library                          : x264 core 146 r2538 121396c
Encoding settings                        : cabac=1 / ref=9 / deblock=1:1:1 / analyse=0x3:0x133 / me=umh / subme=10 / psy=1 / psy_rd=0.40:0.00 / mixed_ref=1 / me_range=24 / chroma_me=1 / trellis=2 / 8x8dct=1 / cqm=0 / deadzone=21,11 / fast_pskip=1 / chroma_qp_offset=-2 / threads=12 / lookahead_threads=3 / sliced_threads=0 / nr=0 / decimate=1 / interlaced=0 / bluray_compat=0 / constrained_intra=0 / bframes=10 / b_pyramid=2 / b_adapt=2 / b_bias=0 / direct=3 / weightb=1 / open_gop=0 / weightp=2 / keyint=250 / keyint_min=23 / scenecut=40 / intra_refresh=0 / rc_lookahead=60 / rc=crf / mbtree=1 / crf=18.0 / qcomp=0.60 / qpmin=0 / qpmax=69 / qpstep=4 / ip_ratio=1.40 / aq=1:0.60
Language                                 : English
Default                                  : Yes
Forced                                   : No
Audio #1
ID                                       : 2
Format                                   : AC-3
Format/Info                              : Audio Coding 3
Mode extension                           : CM (complete main)
Format settings, Endianness              : Big
Codec ID                                 : A_AC3
Duration                                 : 23mn 14s
Bit rate mode                            : Constant
Bit rate                                 : 128 Kbps
Channel(s)                               : 2 channels
Channel positions                        : Front: L R
Sampling rate                            : 48.0 KHz
Compression mode                         : Lossy
Stream size                              : 21.3 MiB (5%)
Language                                 : Russian
Default                                  : Yes
Forced                                   : No
Audio #2
ID                                       : 3
Format                                   : AC-3
Format/Info                              : Audio Coding 3
Mode extension                           : CM (complete main)
Format settings, Endianness              : Big
Codec ID                                 : A_AC3
Duration                                 : 23mn 14s
Bit rate mode                            : Constant
Bit rate                                 : 128 Kbps
Channel(s)                               : 2 channels
Channel positions                        : Front: L R
Sampling rate                            : 48.0 KHz
Compression mode                         : Lossy
Stream size                              : 21.3 MiB (5%)
Language                                 : English
Default                                  : No
Forced                                   : No
Text
ID                                       : 4
Format                                   : UTF-8
Codec ID                                 : S_TEXT/UTF8
Codec ID/Info                            : UTF-8 Plain Text
Title                                    : English Closed Captions
Language                                 : English
Default                                  : No
Forced                                   : No


Последний раз редактировалось: yarik (2017-06-09 01:39), всего редактировалось 2 раз(а)

Создавать темы 12-Дек-2015 09:52

[Профиль]  [ЛС] 

Страх

Стаж: 3 года 10 месяцев

Сообщений: 1131

Симпатии: 448

самый удачный сериал не ошибусь если скажу за 10 лет в данном жанре.

Создавать темы 12-Дек-2015 16:42

[Профиль]  [ЛС] 

IIpu3pak

Стаж: 5 лет 6 месяцев

Сообщений: 258

Симпатии: 53

Страх, еще Футураму стоит вспомнить. Тоже достаточно неплохая вещь была.

Создавать темы 29-Дек-2015 18:18

[Профиль]  [ЛС] 
Показать сообщения:    
Ответить на тему

Текущее время: 22-Авг 00:47

Часовой пояс: UTC + 5



Вы не можете начинать темы
Вы не можете отвечать на сообщения
Вы не можете редактировать свои сообщения
Вы не можете удалять свои сообщения
Вы не можете голосовать в опросах
Вы не можете прикреплять файлы к сообщениям
Вы не можете скачивать файлы