Красивые люди (Брини Америго) / Beautiful People [2014, ужасы, DVDRip]

Ответить на тему
 

shideb_sting ®

Стаж: 3 года 11 месяцев

Сообщений: 33

Симпатии: 62

Красивые люди (Брини Америго) / Beautiful People [2014 г.,Ужасы, DVDRip]
Страна: Италия
Жанр: ужасы
Год выпуска: 2014
Продолжительность: 01:12:29
Перевод: Авторский (одноголосый закадровый) Доп. инфо о переводе Ворон
Cубтитры: нет
Режиссер: Брини Америго
В ролях: Дэнни Катлер, Алекс Луккези, Алекс Саузерн, Кейт Мари Дэвис, Дэвид Уайт, Джеймс Уайлз, Ванина Марини, Александра Антониоли, Этторе Николетти
Описание: В лесном особняке, мирную жизнь доктора и его семьи нарушают трое людейв в масках. Начинается бесконечная ночь террора и насилия, происходит осознание: в дом вторглись бандиты. Страх выявляет истинную природу каждого персонажа, заставляя их задуматься... "Кто является реальным монстром?"
Качество видео: DVDRip
Формат видео: AVI
Возраст: зрителям достигшим 16 лет
Видео: Xvid 720x304 (44:19) 25fps 2365kbps
Аудио: Dolby AC3 48000Hz stereo 320kbps

MediaInfo

General
Complete name : Beautiful People.2014.DVDRip.avi
Format : AVI
Format/Info : Audio Video Interleave
Format profile : OpenDML
File size : 1.37 GiB
Duration : 1h 12mn
Overall bit rate : 2 698 Kbps
Writing application : XviD4PSP 6.0 / 54.29.105
Video
ID : 0
Format : xvid
Codec ID : xvid
Duration : 1h 12mn
Bit rate : 2 366 Kbps
Width : 720 pixels
Height : 304 pixels
Display aspect ratio : 2.35:1
Frame rate : 25.000 fps
Bits/(Pixel*Frame) : 0.432
Stream size : 1.20 GiB (88%)
Audio
ID : 1
Format : AC-3
Format/Info : Audio Coding 3
Mode extension : CM (complete main)
Format settings, Endianness : Big
Codec ID : 2000
Duration : 1h 12mn
Bit rate mode : Constant
Bit rate : 320 Kbps
Channel(s) : 2 channels
Channel positions : Front: L R
Sampling rate : 48.0 KHz
Bit depth : 16 bits
Compression mode : Lossy
Stream size : 166 MiB (12%)
Alignment : Aligned on interleaves
Interleave, duration : 32 ms (0.80 video frame)

Скриншоты





Создавать темы 12-Дек-2015 15:00

[Профиль]  [ЛС] 
Показать сообщения:    
Ответить на тему

Текущее время: 25-Ноя 07:03

Часовой пояс: UTC + 5



Вы не можете начинать темы
Вы не можете отвечать на сообщения
Вы не можете редактировать свои сообщения
Вы не можете удалять свои сообщения
Вы не можете голосовать в опросах
Вы не можете прикреплять файлы к сообщениям
Вы не можете скачивать файлы