Ускорение / Momentum (Стивен С. Кампанелли / Stephen S. Campanelli) [2015, ЮАР, США, боевик, триллер, BDRip-AVC] (Dub : [Лицензия BD RUS])

Ответить на тему
 

Star Line ®

Стаж: 4 года

Сообщений: 136

Симпатии: 26

Ускорение / Momentum
Страна: ЮАР, США
Жанр: боевик, триллер
Год выпуска: 2015
Продолжительность: 01:36:03
Перевод: Профессиональный (дублированный) Доп. инфо о переводе [Лицензия BD RUS]
Cубтитры: нет
Режиссер: Стивен С. Кампанелли / Stephen S. Campanelli
В ролях: Ольга Куриленко, Морган Фриман, Джеймс Пьюрфой, Дилан Эди, Дженна Сарас, Ли-Энн Саммерс, Колин Мосс, Эйдан Уайток, Мэриэн Фризелл, Брендан Мюррэй, Лиза Леонард, Эбби Уэйим
Описание: Алекс, опытная воровка, соглашается совершить свое последнее ограбление... Но все идет не по плану. Теперь ей - красивой, сильной и безжалостной femme fatale - угрожает опасность. И неудачное ограбление - не единственная проблема. Она перешла дорогу секретному международному синдикату, который ищет нечто более ценное, чем бриллианты. С этого момента для Алекс единственный способ спастись - бежать. И как можно быстрее
Качество видео: BDRip-AVC
Формат видео: AVI
Видео: Video: Xvid 720x304 23.976fps 1770kbps [V: mpeg4 advanced simple profile, yuv420p, 720x304, 1770 kb/s]
Аудио: Audio: Dolby AC3 48000Hz 6ch 384kbps [A: ac3, 48000 Hz, 5.1, 384 kb/s]

MediaInfo

Video
ID : 0
Format : MPEG-4 Visual
Format profile : Advanced [email protected]
Format settings, BVOP : 1
Format settings, QPel : No
Format settings, GMC : No warppoints
Format settings, Matrix : Custom
Codec ID : XVID
Codec ID/Hint : XviD
Duration : 1h 36mn
Bit rate : 1 770 Kbps
Width : 720 pixels
Height : 304 pixels
Display aspect ratio : 2.35:1
Frame rate : 23.976 fps
Color space : YUV
Chroma subsampling : 4:2:0
Bit depth : 8 bits
Scan type : Progressive
Compression mode : Lossy
Bits/(Pixel*Frame) : 0.337
Stream size : 1.19 GiB (82%)
Writing library : XviD 67
Audio
ID : 1
Format : AC-3
Format/Info : Audio Coding 3
Mode extension : CM (complete main)
Format settings, Endianness : Big
Codec ID : 2000
Duration : 1h 35mn
Bit rate mode : Constant
Bit rate : 384 Kbps
Channel(s) : 6 channels
Channel positions : Front: L C R, Side: L R, LFE
Sampling rate : 48.0 KHz
Compression mode : Lossy
Stream size : 263 MiB (18%)
Alignment : Split accross interleaves
Interleave, duration : 42 ms (1.00 video frame)
Interleave, preload duration : 500 ms

Скриншот c названием фильма

http://img.tas-ix.net/images/2015/12/12/10b1cb3a10a...86f62e87c248.jpg

Скриншоты






Последний раз редактировалось: Star Line (2015-12-12 23:10), всего редактировалось 1 раз

Создавать темы 12-Дек-2015 20:41

[Профиль]  [ЛС] 

Star Line ®

Стаж: 4 года

Сообщений: 136

Симпатии: 26

Мне ждать решения или могу идти спать? Не разобрался с скриншотами, хотя раньше получалось

Создавать темы 12-Дек-2015 21:51

[Профиль]  [ЛС] 

NerZul

Стаж: 4 года 2 месяца

Сообщений: 10

Симпатии: 5

Ладно, скачаю, но только из за последнего скрина. =)

Создавать темы 18-Дек-2015 19:34

[Профиль]  [ЛС] 
Показать сообщения:    
Ответить на тему

Текущее время: 21-Окт 19:02

Часовой пояс: UTC + 5



Вы не можете начинать темы
Вы не можете отвечать на сообщения
Вы не можете редактировать свои сообщения
Вы не можете удалять свои сообщения
Вы не можете голосовать в опросах
Вы не можете прикреплять файлы к сообщениям
Вы не можете скачивать файлы