Восточный ветер 2 / Ostwind 2 (Катя фон Гарнье / Katja von Garnier) [2015, Германия, драма, мелодрама, приключения, семейный, HDRip] (MVO : ViruseProject)

Ответить на тему
 

iddqd ®

Стаж: 3 года 8 месяцев

Сообщений: 16

Симпатии: 15

Восточный ветер 2 / Ostwind 2
Страна: Германия
Жанр: драма, мелодрама, приключения, семейный
Год выпуска: 2015
Продолжительность: 01:47:56
Перевод: Профессиональный (многоголосый закадровый) Доп. инфо о переводе ViruseProject
Cубтитры: нет
Режиссер: Катя фон Гарнье / Katja von Garnier
В ролях: Атила, Ханна Бинке, Амбер Бонгард, Кенци Дисли, Корнелия Фробёсс, Кристиан Фуррер, Джеймс, Герхард Йилька, Нина Кронъягер, Марвин Линке
Описание: Наступили летние каникулы, и Мика возвращается в Кальтенбах в тревоге за своего вороного друга Оствинда. В поместье бабушки тоже не все гладко: Кальтенбах на грани банкротства, и единственный шанс спасти его от разорения — принять участие в очередном турнире. Также Мике придется выяснить, откуда у Оствинда странные шрамы, узнать, кто такая Тридцать Третья, и пойти на сделку с незнакомцем, утверждающим, что он может помочь девушке выиграть турнир.
Качество видео: HDRip
Формат видео: AVI
Видео: Xvid 720x304 24fps 1741kbps
Аудио: Dolby AC3 48000Hz stereo 192kbps

MediaInfo

Format : AVI
Format/Info : Audio Video Interleave
File size : 1.47 GiB
Duration : 1h 47mn
Overall bit rate : 1 943 Kbps
Writing application : VirtualDubMod 1.5.10.2 (build 2540/release)
Writing library : VirtualDubMod build 2540/release
Video
ID : 0
Format : MPEG-4 Visual
Format profile : Advanced [email protected]
Format settings, BVOP : 1
Format settings, QPel : No
Format settings, GMC : No warppoints
Format settings, Matrix : Default (MPEG)
Codec ID : XVID
Codec ID/Hint : XviD
Duration : 1h 47mn
Bit rate : 1 742 Kbps
Width : 720 pixels
Height : 304 pixels
Display aspect ratio : 2.35:1
Frame rate : 24.000 fps
Color space : YUV
Chroma subsampling : 4:2:0
Bit depth : 8 bits
Scan type : Progressive
Compression mode : Lossy
Bits/(Pixel*Frame) : 0.332
Stream size : 1.31 GiB (90%)
Writing library : XviD 1.2.1 (UTC 2008-12-04)
Audio
ID : 1
Format : AC-3
Format/Info : Audio Coding 3
Mode extension : CM (complete main)
Format settings, Endianness : Big
Codec ID : 2000
Duration : 1h 47mn
Bit rate mode : Constant
Bit rate : 192 Kbps
Channel(s) : 2 channels
Channel positions : Front: L R
Sampling rate : 48.0 KHz
Bit depth : 16 bits
Compression mode : Lossy
Stream size : 148 MiB (10%)
Alignment : Split accross interleaves
Interleave, duration : 42 ms (1.00 video frame)
Interleave, preload duratio : 500 ms

Скриншот c названием фильма

Скриншоты



Создавать темы 13-Дек-2015 10:32

[Профиль]  [ЛС] 

iddqd ®

Стаж: 3 года 8 месяцев

Сообщений: 16

Симпатии: 15

https://tas-ix.net/viewtopic.php?t=111264 Первая часть. Хороший, добрый семейный фильм :)

Создавать темы 13-Дек-2015 10:44

[Профиль]  [ЛС] 
Показать сообщения:    
Ответить на тему

Текущее время: 25-Сен 07:32

Часовой пояс: UTC + 5



Вы не можете начинать темы
Вы не можете отвечать на сообщения
Вы не можете редактировать свои сообщения
Вы не можете удалять свои сообщения
Вы не можете голосовать в опросах
Вы не можете прикреплять файлы к сообщениям
Вы не можете скачивать файлы