Флэш / The Flash / Сезон: 2 / Серии: 1-23 из 23 (Дэвид Наттер) [2015-2016, Фантастика, Боевик, Драма, Приключения, Комиксы, WEB-DLRip] (MVO : LostFilm)

Страницы :  1, 2  След.

Ответить на тему
 

DXgame ®

Стаж: 5 лет 1 месяц

Сообщений: 128

Симпатии: 144

Флэш / The Flash
Год выпуска: 2015
Страна: США
Жанр: Фантастика, Боевик, Драма, Приключения, Комиксы
Продолжительность: ~ 00:43:00
Перевод: Профессиональный (многоголосый, закадровый) (LostFilm)-Режиссёр: Дэвид Наттер-В ролях: Грант Гастин, Кэндис Паттон, Даниэль Панабэйкер, Рик Коснетт, Карлос Валдес, Томас Кэвэна-Описание:
Когда Барри Аллен был маленьким, больше всего на свете ему хотелось быть супергероем — тем, кто превосходит лимиты человеческого организма и использует во благо данную ему силу. Когда Барри было одиннадцать лет, он на собственном опыте узнал, что люди с необычными способностями действительно существуют: его мать была убита одним из таких людей. Повзрослев и став судмедэкспертом, Барри не отбросил мыслей о сверхлюдях и продолжал искать доказательства их существования, что не лучшим образом сказывалось на его репутации и общении с коллегами. Впрочем, однажды его усилия были вознаграждены…-Качество: WEB-DLRip
Формат: AVI
Видео кодек: XviD
Аудио кодек: MP3
Видео: XviD, 1 724 kbps, 720x400, 23.976 fps
Аудио: MP3, 48.0 KHz, 2 ch, 192 kbps

MediaInfo

General
Format                         : AVI
Format/Info                    : Audio Video Interleave
File size                      : 586 MiB
Duration                       : 42mn 34s
Overall bit rate mode          : Variable
Overall bit rate               : 1 925 Kbps
Writing application            : Nandub v1.0rc2
Writing library                : Nandub build 1853/release
Video
ID                             : 0
Format                         : MPEG-4 Visual
Format profile                 : Advanced [email protected]
Format settings, BVOP          : No
Format settings, QPel          : No
Format settings, GMC           : No warppoints
Format settings, Matrix        : Default (H.263)
Codec ID                       : XVID
Codec ID/Hint                  : XviD
Duration                       : 42mn 34s
Bit rate                       : 1 724 Kbps
Width                          : 720 pixels
Height                         : 400 pixels
Display aspect ratio           : 16:9
Frame rate                     : 23.976 fps
Color space                    : YUV
Chroma subsampling             : 4:2:0
Bit depth                      : 8 bits
Scan type                      : Progressive
Compression mode               : Lossy
Bits/(Pixel*Frame)             : 0.250
Stream size                    : 525 MiB (90%)
Writing library                : XviD 1.2.1 (UTC 2008-12-04)
Audio
ID                             : 1
Format                         : MPEG Audio
Format version                 : Version 1
Format profile                 : Layer 3
Mode                           : Joint stereo
Mode extension                 : MS Stereo
Codec ID                       : 55
Codec ID/Hint                  : MP3
Duration                       : 42mn 34s
Bit rate mode                  : Variable
Bit rate                       : 192 Kbps
Channel(s)                     : 2 channels
Sampling rate                  : 48.0 KHz
Compression mode               : Lossy
Stream size                    : 57.3 MiB (10%)
Alignment                      : Aligned on interleaves
Interleave, duration           : 24 ms (0.58 video frame)
Interleave, preload duration   : 475 ms
Writing library                : LAME3.97b
Encoding settings              : -m j -V 4 -q 3 -lowpass 18.6 --abr 192

Скриншоты





Последний раз редактировалось: DXgame (2016-06-08 02:53), всего редактировалось 12 раз(а)

Создавать темы 13-Дек-2015 11:35

[Профиль]  [ЛС] 

DXgame ®

Стаж: 5 лет 1 месяц

Сообщений: 128

Симпатии: 144

Обновите торрент!
Добавлена 9 серия!

Создавать темы 13-Дек-2015 11:36

[Профиль]  [ЛС] 

SMaIL

Стаж: 3 года 9 месяцев

Сообщений: 740

Симпатии: 233

Зачем каждый раз создавать новую раздачу?

Создавать темы 13-Дек-2015 18:38

[Профиль]  [ЛС] 

DXgame ®

Стаж: 5 лет 1 месяц

Сообщений: 128

Симпатии: 144

SMaIL, Ошибка часто начала вылазить, "не удалось зарегистрировать торрент"

Создавать темы 13-Дек-2015 18:48

[Профиль]  [ЛС] 

Admin

Стаж: 5 лет 10 месяцев

Сообщений: 580

Симпатии: 106

в таких случаях не легче написать мне ?

Создавать темы 13-Дек-2015 19:48

[Профиль]  [ЛС] 

Jahongir027

Стаж: 3 года 10 месяцев

Сообщений: 31

Симпатии: 10

вас много а скорость медленный

Создавать темы 11-Янв-2016 19:17

[Профиль]  [ЛС] 

XurshidN

Стаж: 3 года 10 месяцев

Сообщений: 20

Симпатии: 1

когда будут следующие серии??? кто знает?

Создавать темы 17-Янв-2016 18:19

[Профиль]  [ЛС] 

Mamutov

Стаж: 4 года 10 месяцев

Сообщений: 255

Симпатии: 144

965514когда будут следующие серии??? кто знает?
10 серия выйдет 19 января на англиском

Создавать темы 17-Янв-2016 21:32

[Профиль]  [ЛС] 

seriy-volk

Стаж: 2 года 8 месяцев

Сообщений: 1

Новые серии будете добавлять?

Создавать темы 10-Фев-2016 20:50

[Профиль]  [ЛС] 

Sayyks

Стаж: 3 года 10 месяцев

Сообщений: 5

А продолжение то будет после 9 серии ?

Создавать темы 24-Фев-2016 20:59

[Профиль]  [ЛС] 

Rst

Стаж: 6 лет 11 месяцев

Сообщений: 38

Симпатии: 1

Где продолжение?

Создавать темы 11-Мар-2016 19:15

[Профиль]  [ЛС] 

gold_man

Стаж: 8 лет 2 месяца

Сообщений: 162

Симпатии: 18

962006Обновите торрент!
Добавлена 9 серия!
когда будет продолжения ? tu

Создавать темы 28-Мар-2016 13:59

[Профиль]  [ЛС] 

DXgame ®

Стаж: 5 лет 1 месяц

Сообщений: 128

Симпатии: 144

Обновите торрент!
Добавлено до 16 серии.

Создавать темы 31-Мар-2016 20:34

[Профиль]  [ЛС] 

DXgame ®

Стаж: 5 лет 1 месяц

Сообщений: 128

Симпатии: 144

Обновите торрент!
Добавлена 17 серия!

Создавать темы 01-Апр-2016 15:09

[Профиль]  [ЛС] 

gold_man

Стаж: 8 лет 2 месяца

Сообщений: 162

Симпатии: 18

971266Обновите торрент!
Добавлена 17 серия!
спс ay respect

Создавать темы 01-Апр-2016 23:36

[Профиль]  [ЛС] 
Показать сообщения:    
Ответить на тему

Текущее время: 19-Ноя 13:49

Часовой пояс: UTC + 5



Вы не можете начинать темы
Вы не можете отвечать на сообщения
Вы не можете редактировать свои сообщения
Вы не можете удалять свои сообщения
Вы не можете голосовать в опросах
Вы не можете прикреплять файлы к сообщениям
Вы не можете скачивать файлы