Dragonar Academy / Академия Драгонаров / Seikoku no Dragonar TV-1 (Серии: 12-12 из 12) (Тада Сюнсукэ) [2014, Комедия, Этти, фантастика, школа, HDTV] [Anidub.com]

Ответить на тему
 

Xatiman ®

Стаж: 2 года

Сообщений: 38

Симпатии: 2

Dragonar Academy/ Академия Драгонаров / Академия Драконьих Наездников/Seikoku no Dragonar
--Год выпуска: 2014
Страна: Япония
Жанр: Комедия, Этти, фантастика, школа
Продолжительность: 00:24:00-Перевод: Любительский, двухголосый, закадровый (Симбад, Holly) [Anidub.com]
Русские субтитры: нет
Режиссёр: Тада Сюнсукэ-Описание: Королевство Лотремон известно как страна повелителей драконов. В ходе особого ритуала жители Лотремона могут получить на свое тело особую метку с зародышем дракона внутри. Обладатели такой метки поступают в академию драконьих всадников, Ансариван. Ко времени когда ученики академии получают ранг юниос из их метки вырастает дракон который навсегда становится их спутником. Дракон в свою очередь получает через связь со своим наездником астральную энергию. Главный персонаж, Эш Блейк — один из будущих наездников драконов. В отличие от прочих драконов, дракон Эша принял форму девушки по имени Эко. Кроме того, сам Эш обладает уникальной способностью подчинять себе чужих драконов. Сюжет повествует о его приключениях.-Качество: HDTV
Формат: MP4
Видео кодек: AVC
Аудио кодек: AAC
Видео: AVC, 1280x720, 23 FPS, 2 132 Kbps, 720p
Аудио: JAP, AAC, 48.o KHz, 2 channels, 192kbs
Аудио 2: RU, AAC, 48.o KHz, 2 channels, 192kbs
Субтитры: отсутствуют-

MediaInfo

General
Complete name : K:\04.07.2015\!!Dragonar Academy\Seikoku no Dragonar - 01 [720p_x264_Aac].mp4
Format : MPEG-4
Format profile : Base Media
Codec ID : isom
File size : 424 MiB
Duration : 25mn 27s
Overall bit rate mode : Variable
Overall bit rate : 2 328 Kbps
Encoded date : UTC 2014-04-18 13:39:25
Tagged date : UTC 2014-04-18 13:39:25
Writing application : Yamb 2.1.0.0 [http://yamb.unite-video.com]
Video
ID : 1
Format : AVC
Format/Info : Advanced Video Codec
Format profile : [email protected]
Format settings, CABAC : Yes
Format settings, ReFrames : 4 frames
Codec ID : avc1
Codec ID/Info : Advanced Video Coding
Duration : 25mn 27s
Bit rate : 2 132 Kbps
Maximum bit rate : 9 643 Kbps
Width : 1 280 pixels
Height : 720 pixels
Display aspect ratio : 16:9
Frame rate mode : Constant
Frame rate : 23.976 fps
Color space : YUV
Chroma subsampling : 4:2:0
Bit depth : 8 bits
Scan type : Progressive
Bits/(Pixel*Frame) : 0.096
Stream size : 388 MiB (92%)
Title : 264
Writing library : x264 core 129 r2245+729M 1a52e03
Encoding settings : cabac=1 / ref=4 / deblock=1:1:-1 / analyse=0x3:0x113 / me=umh / subme=9 / psy=1 / fade_compensate=0.00 / psy_rd=1.00:0.00 / mixed_ref=1 / me_range=24 / chroma_me=1 / trellis=2 / 8x8dct=1 / cqm=0 / deadzone=21,11 / fast_pskip=1 / chroma_qp_offset=-2 / threads=8 / lookahead_threads=1 / sliced_threads=0 / nr=0 / decimate=1 / interlaced=0 / bluray_compat=0 / constrained_intra=0 / fgo=0 / bframes=9 / b_pyramid=2 / b_adapt=2 / b_bias=0 / direct=1 / weightb=1 / open_gop=0 / weightp=2 / keyint=240 / keyint_min=24 / scenecut=40 / intra_refresh=0 / rc=crf / mbtree=0 / crf=19.0 / qcomp=0.72 / qpmin=0 / qpmax=69 / qpstep=4 / ip_ratio=1.40 / pb_ratio=1.30 / aq=1:0.85
Encoded date : UTC 2014-04-05 16:44:57
Tagged date : UTC 2014-04-18 13:39:28
Color primaries : BT.709-5, BT.1361, IEC 61966-2-4, SMPTE RP177
Transfer characteristics : BT.709-5, BT.1361
Matrix coefficients : BT.709-5, BT.1361, IEC 61966-2-4 709, SMPTE RP177
Audio
ID : 2
Format : AAC
Format/Info : Advanced Audio Codec
Format profile : LC
Codec ID : 40
Duration : 25mn 27s
Bit rate mode : Variable
Bit rate : 192 Kbps
Maximum bit rate : 201 Kbps
Channel(s) : 2 channels
Channel positions : Front: L R
Sampling rate : 48.0 KHz
Compression mode : Lossy
Stream size : 34.9 MiB (8%)
Language : Russian
Encoded date : UTC 2014-04-18 13:39:27
Tagged date : UTC 2014-04-18 13:39:28

Скриншоты








Последний раз редактировалось: Xatiman (2015-12-14 18:59), всего редактировалось 2 раз(а)

Создавать темы 14-Дек-2015 08:20

[Профиль]  [ЛС] 

[email protected]

Стаж: 4 года 5 месяцев

Сообщений: 336

Симпатии: 143

Xatiman, подправил мелкие недочеты, и на будущее,
В ролях: японские актёры
так писать не надо)

Создавать темы 14-Дек-2015 18:56

[Профиль]  [ЛС] 

Xatiman ®

Стаж: 2 года

Сообщений: 38

Симпатии: 2

962179Xatiman, подправил мелкие недочеты, и на будущее,
В ролях: японские актёры
так писать не надо)
ясно исправим!

Создавать темы 14-Дек-2015 20:53

[Профиль]  [ЛС] 

Xatiman ®

Стаж: 2 года

Сообщений: 38

Симпатии: 2

Внимание народ!!Кто хочет скачать данный сериал
раздавать буду
с 15:00 до 17:00 и
с 20:30 до 24:00
Ребят качаем не стесняемся

Создавать темы 14-Дек-2015 22:49

[Профиль]  [ЛС] 

Xatiman ®

Стаж: 2 года

Сообщений: 38

Симпатии: 2

Внимание народ!!Кто хочет скачать данный сериал
раздавать буду
с 15:00 до 17:00 и
с 20:30 до 24:00
Ребят качаем не стесняемся
это когда я дома буду

Создавать темы 14-Дек-2015 22:50

[Профиль]  [ЛС] 

Xatiman ®

Стаж: 2 года

Сообщений: 38

Симпатии: 2

Принимаю заявки на добавление Аниме

Создавать темы 14-Дек-2015 22:51

[Профиль]  [ЛС] 

Booom

Стаж: 4 года 10 месяцев

Сообщений: 32

Симпатии: 49

походу он все свернул все свои аниме пацаны не ждите его уже

Создавать темы 22-Дек-2015 21:11

[Профиль]  [ЛС] 

kartwright

Стаж: 2 года 9 месяцев

Сообщений: 35

Симпатии: 9

Дохрена релизить и ничего толком не раздавать ... кого-то он мне напоминает...

Создавать темы 22-Дек-2015 22:01

[Профиль]  [ЛС] 

Alex_38

Стаж: 5 лет 9 месяцев

Сообщений: 336

Симпатии: 37

kartwright, только тот человек очень ленив на фигаченье оформления для релизов...)

Создавать темы 22-Дек-2015 23:11

[Профиль]  [ЛС] 

Razrushitel

Стаж: 4 года 5 месяцев

Сообщений: 148

Симпатии: 42

kartwright, Мне он двоих напоминает хД (это вместе с тем кого вы подумали)

Создавать темы 23-Дек-2015 00:39

[Профиль]  [ЛС] 

Xatiman ®

Стаж: 2 года

Сообщений: 38

Симпатии: 2

963286Дохрена релизить и ничего толком не раздавать ... кого-то он мне напоминает...
Интересно кого же?

Создавать темы 26-Дек-2015 14:47

[Профиль]  [ЛС] 

Xatiman ®

Стаж: 2 года

Сообщений: 38

Симпатии: 2

963311kartwright, Мне он двоих напоминает хД (это вместе с тем кого вы подумали)
Двоих сразу, и кто ж эти люди?

Создавать темы 26-Дек-2015 14:48

[Профиль]  [ЛС] 

Xatiman ®

Стаж: 2 года

Сообщений: 38

Симпатии: 2

963278походу он все свернул все свои аниме пацаны не ждите его уже
почему это свернул? просто на время приосановил, проблемы были. Но Ill be back

Создавать темы 26-Дек-2015 14:49

[Профиль]  [ЛС] 

kartwright

Стаж: 2 года 9 месяцев

Сообщений: 35

Симпатии: 9

Интересно кого же?
''Того-Чьё-Имя-Нельзя-Называть'' ;D

Комментарий от SNIL


:)

Создавать темы 26-Дек-2015 18:30

[Профиль]  [ЛС] 

Xatiman ®

Стаж: 2 года

Сообщений: 38

Симпатии: 2

963738
Интересно кого же?
''Того-Чьё-Имя-Нельзя-Называть'' ;D
волондэморт чтоли?

Создавать темы 28-Дек-2015 22:14

[Профиль]  [ЛС] 
Показать сообщения:    
Ответить на тему

Текущее время: 14-Дек 07:39

Часовой пояс: UTC + 5



Вы не можете начинать темы
Вы не можете отвечать на сообщения
Вы не можете редактировать свои сообщения
Вы не можете удалять свои сообщения
Вы не можете голосовать в опросах
Вы не можете прикреплять файлы к сообщениям
Вы не можете скачивать файлы