Ночь Живой Дэб / Night of the Living Deb (Кайл Ранкин) [2015, США, ужасы, мелодрама, комедия, HDRip] (MVO)

Ответить на тему
 

lucky999 ®

Стаж: 1 год 11 месяцев

Сообщений: 32

Симпатии: 43

Ночь Живой Дэб / Night of the Living Deb
Страна: США
Жанр: ужасы, мелодрама, комедия
Год выпуска: 2015
Продолжительность: 01:24:51
Перевод: Любительский (многоголосый закадровый)
Cубтитры: нет
Режиссер: Кайл Ранкин
В ролях: Мария Тэйер, Рэй Уайз, Крис Маркетт, Майкл Кэссиди, Сид Уайлдер, Брайан Сакка, Джули Бристер, Рэнди Моррис
Описание: Дэб — рыжая бестия. И где бы она ни появилась — приключения так и поджидают её. Может поэтому мужчины бросают её после первой ночи. Но когда начинается зомби-апокалипсис, Дэб решает не упускать своего последнего шанса и любой ценой подцепить себе жениха!
Доп. информация: сценарий : Andy Selsor, Кайл Ранкин
продюсер: Майкл Кэссиди, Чад Николсон, Кайл Ранкин, ...
оператор : Томас Э. Экермен
композитор: Стивен Гатайнц
художник: Джереми Джонатан Уайт, Laura Lienert
монтаж: Tony Copolillo
Качество видео: HDRip
Формат видео: AVI
Видео: Xvid 640x312 23.976fps 1006kbps [V: mpeg4 advanced simple profile, yuv420p, 640x312, 1006 kb/s]
Аудио: MP3 44100Hz stereo 192kbps [A: mp3, 44100 Hz, stereo, 192 kb/s]

MediaInfo

General
Complete name : D:\torrent\Night.Of.The Living.Deb.2015 L2.HDRip.ExKinoRay.avi
Format : AVI
Format/Info : Audio Video Interleave
File size : 733 MiB
Duration : 1h 24mn
Overall bit rate : 1 208 Kbps
Writing application : VirtualDubMod 1.5.10.3 | www.virtualdub-fr.org || (build 2550/release)
Writing library : VirtualDubMod build 2550/release
Video
ID : 0
Format : MPEG-4 Visual
Format profile : Advanced [email protected]
Format settings, BVOP : 1
Format settings, QPel : No
Format settings, GMC : No warppoints
Format settings, Matrix : Custom
Codec ID : XVID
Codec ID/Hint : XviD
Duration : 1h 24mn
Bit rate : 1 007 Kbps
Width : 640 pixels
Height : 312 pixels
Display aspect ratio : 2.051
Frame rate : 23.976 fps
Color space : YUV
Chroma subsampling : 4:2:0
Bit depth : 8 bits
Scan type : Progressive
Compression mode : Lossy
Bits/(Pixel*Frame) : 0.210
Stream size : 611 MiB (83%)
Writing library : XviD 73
Audio
ID : 1
Format : MPEG Audio
Format version : Version 1
Format profile : Layer 3
Codec ID : 55
Codec ID/Hint : MP3
Duration : 1h 24mn
Bit rate mode : Constant
Bit rate : 192 Kbps
Channel(s) : 2 channels
Sampling rate : 44.1 KHz
Compression mode : Lossy
Stream size : 117 MiB (16%)
Alignment : Split accross interleaves
Interleave, duration : 42 ms (1.00 video frame)
Interleave, preload duration : 500 ms
Writing library : LAME3.99r
Encoding settings : -m s -V 4 -q 0 -lowpass 18.6 -b 192

Скриншоты




Создавать темы 14-Дек-2015 12:24

[Профиль]  [ЛС] 

nurkamol

Стаж: 7 лет 3 месяца

Сообщений: 41

gde razdacha

Создавать темы 14-Дек-2015 12:45

[Профиль]  [ЛС] 

westcoast2012

Стаж: 5 лет 3 месяца

Сообщений: 17

как фильм нормальный?

Создавать темы 15-Дек-2015 08:05

[Профиль]  [ЛС] 

ulkiora5

Стаж: 4 года 2 месяца

Сообщений: 50

Симпатии: 25

у девочек кого нибудь подцепить, у мальчиков кого нибудь запе.....

Создавать темы 15-Дек-2015 10:50

[Профиль]  [ЛС] 

adata

Стаж: 6 лет 3 месяца

Сообщений: 16

кто смотрел

Создавать темы 28-Дек-2015 23:46

[Профиль]  [ЛС] 
Показать сообщения:    
Ответить на тему

Текущее время: 24-Авг 06:18

Часовой пояс: UTC + 5



Вы не можете начинать темы
Вы не можете отвечать на сообщения
Вы не можете редактировать свои сообщения
Вы не можете удалять свои сообщения
Вы не можете голосовать в опросах
Вы не можете прикреплять файлы к сообщениям
Вы не можете скачивать файлы