Картофельный салат / Kartoffelsalat (Майкл Дэвид Пейт) [2015, Германия, ужасы, комедия, BDRip] (DVO)

Ответить на тему
 

lucky999 ®

Стаж: 2 года

Сообщений: 32

Симпатии: 43

Картофельный салат / Kartoffelsalat
Страна: Германия
Жанр: ужасы, комедия
Год выпуска: 2015
Продолжительность: 01:23:17
Перевод: Любительский (двухголосый закадровый)
Режиссер: Майкл Дэвид Пейт
В ролях: Мартин Гёрес, Отто Валькес, Майкл Епп, Джойс Айлдж, Даги Би, Кати Карренбауэр,Тобиас Шенке
Описание: Когда смертельный зомби-вирус заражет школу в Германии, лишь один Лео может спасти мир от этой чумы.
Доп. информация: сценарий: Freshtorge, Michael David Pate
продюсер: Linh Lu, Freshtorge, Michael David Pate, ...
оператор: Wolfgang Busch
композитор: Eko Fresh, Эндрю Рич, Отто Валькес
художник: Флориан Альбертсен, Inga Braun, Darius Dombrowski, ...
монтаж: Michael David Pate
Качество видео: BDRip
Формат видео: AVI
Видео: Xvid 704x288 24fps 1040kbps [V: mpeg4 advanced simple profile, yuv420p, 704x288, 1040 kb/s]
Аудио: MP3 44100Hz stereo 128kbps [A: mp3, 44100 Hz, stereo, 128 kb/s] Скриншоты

MediaInfo

General
Complete name : D:\torrent\kartoffelsalat.avi
Format : AVI
Format/Info : Audio Video Interleave
File size : 704 MiB
Duration : 1h 23mn
Overall bit rate : 1 181 Kbps
Video
ID : 0
Format : MPEG-4 Visual
Format profile : Advanced Simple@L5
Format settings, BVOP : 2
Format settings, QPel : No
Format settings, GMC : No warppoints
Format settings, Matrix : Default (MPEG)
Codec ID : XVID
Codec ID/Hint : XviD
Duration : 1h 23mn
Bit rate : 1 041 Kbps
Width : 704 pixels
Height : 288 pixels
Display aspect ratio : 2.40:1
Frame rate : 24.000 fps
Color space : YUV
Chroma subsampling : 4:2:0
Bit depth : 8 bits
Scan type : Progressive
Compression mode : Lossy
Bits/(Pixel*Frame) : 0.214
Stream size : 620 MiB (88%)
Writing library : XviD 1.2.1 (UTC 2008-12-04)
Audio
ID : 1
Format : MPEG Audio
Format version : Version 1
Format profile : Layer 3
Mode : Joint stereo
Mode extension : MS Stereo
Codec ID : 55
Codec ID/Hint : MP3
Duration : 1h 23mn
Bit rate mode : Constant
Bit rate : 128 Kbps
Channel(s) : 2 channels
Sampling rate : 44.1 KHz
Compression mode : Lossy
Stream size : 76.2 MiB (11%)
Alignment : Aligned on interleaves
Interleave, duration : 26 ms (0.63 video frame)

Скриншоты



Создавать темы 14-Дек-2015 12:50

[Профиль]  [ЛС] 

mars751

Стаж: 5 лет 5 месяцев

Сообщений: 227

Симпатии: 113

Как такое гавно снимают!

Создавать темы 18-Дек-2015 15:25

[Профиль]  [ЛС] 
Показать сообщения:    
Ответить на тему

Текущее время: 24-Сен 13:26

Часовой пояс: UTC + 5



Вы не можете начинать темы
Вы не можете отвечать на сообщения
Вы не можете редактировать свои сообщения
Вы не можете удалять свои сообщения
Вы не можете голосовать в опросах
Вы не можете прикреплять файлы к сообщениям
Вы не можете скачивать файлы