Переводчик (Алексей Нужный) [2015, Драма, Криминал, WEB-DLRip]

Ответить на тему
 

Hurracan ®

Стаж: 1 год 10 месяцев

Сообщений: 79

Симпатии: 80

Переводчик
Жанр: Драма, Криминал
Год выпуска: 2015
Продолжительность: 01:09:19
Режиссёр: Алексей Нужный
В ролях: Леонид Ярмольник, Мария Андреева, Дмитрий Астрахан, Александр Ильин мл., Луиза-Габриэла Бровина, Станислав Дужников, Клара Лаго, Елена Плаксина, Семен Трескунов, Михаил Шамигулов
Описание: Воскресный папа отправляется в командировку вместе со своим двенадцатилетним сыном. Оказавшись свидетелем криминальной разборки, которую затеял главарь местной банды, сын попадает в больницу. Спасти жизнь мальчику может операция за границей. Но она стоит больших денег. Отец решается на отчаянный шаг — он соглашается исполнить три желания главаря банды.
Доп. информация:
Сценаристы: Алексей Нужный, Николай Ковбас
Продюсеры: Александр Цекало, Руслан Сорокин, Илья Комаров
Качество видео: WEBDLRip
Формат видео: AVI
Видео: Xvid 720x304 25fps 2365kbps
Аудио: Dolby AC3 48000Hz stereo 448kbp

MediaInfo

General
Complete name : C:\Users\Hurracan\Downloads\Video\pePeB0d41K.2015.O.WEB-DLRip.1400MB.avi
Format : AVI
Format/Info : Audio Video Interleave
File size : 1.37 GiB
Duration : 1h 9mn
Overall bit rate : 2 824 Kbps
Movie name : pePeB0d41K.2015.O.WEB-DLRip.1400MB
Writing application : VirtualDubMod 1.5.10.2 (build 2540/release)
Original source form/Name : Movie
Video
ID : 0
Format : MPEG-4 Visual
Format profile : Advanced [email protected]
Format settings, BVOP : 2
Format settings, QPel : No
Format settings, GMC : No warppoints
Format settings, Matrix : Default (MPEG)
Codec ID : XVID
Codec ID/Hint : XviD
Duration : 1h 9mn
Bit rate : 2 366 Kbps
Width : 720 pixels
Height : 304 pixels
Display aspect ratio : 2.35:1
Frame rate : 25.000 fps
Color space : YUV
Chroma subsampling : 4:2:0
Bit depth : 8 bits
Scan type : Progressive
Compression mode : Lossy
Bits/(Pixel*Frame) : 0.432
Stream size : 1.15 GiB (84%)
Writing library : XviD 1.2.1 (UTC 2008-12-04)
Audio
ID : 1
Format : AC-3
Format/Info : Audio Coding 3
Mode extension : CM (complete main)
Format settings, Endianness : Big
Codec ID : 2000
Duration : 1h 9mn
Bit rate mode : Constant
Bit rate : 448 Kbps
Channel(s) : 2 channels
Channel positions : Front: L R
Sampling rate : 48.0 KHz
Compression mode : Lossy
Stream size : 222 MiB (16%)
Alignment : Split accross interleaves
Interleave, duration : 40 ms (1.00 video frame)
Interleave, preload duration : 500 ms

Скриншоты




Создавать темы 14-Дек-2015 14:46

[Профиль]  [ЛС] 

pct

Стаж: 6 лет 6 месяцев

Сообщений: 120

Симпатии: 12

Лобанов!

Создавать темы 21-Дек-2015 19:38

[Профиль]  [ЛС] 
Показать сообщения:    
Ответить на тему

Текущее время: 20-Авг 10:40

Часовой пояс: UTC + 5



Вы не можете начинать темы
Вы не можете отвечать на сообщения
Вы не можете редактировать свои сообщения
Вы не можете удалять свои сообщения
Вы не можете голосовать в опросах
Вы не можете прикреплять файлы к сообщениям
Вы не можете скачивать файлы