Зловещие мертвецы: Трилогия / Evil Dead: Trilogy (Сэм Рэйми) [1981, США, Ужасы, фэнтези, комедия, BDRip-AVC] (MVO) (Sub Rus)

Ответить на тему
 

regent.tmz ®

Стаж: 1 год 10 месяцев

Сообщений: 25

Симпатии: 36

Зловещие мертвецы: Трилогия / Evil Dead: Trilogy Страна: США
Жанр: Ужасы, фэнтези, комедия
Год выпуска:1981, 1987, 1992
Продолжительность: 01:25:26 | 01:24:14 | 01:20:56
Перевод: Профессиональный многоголосый, профессиональный двухголосый, авторский одноголосый
Cубтитры: Русские, английские, немецкие
Режиссер: Сэм Рэйми
В ролях: Брюс Кэмпбелл, Эллен Сэндвайсс, Бетси Бэйкер, Тереза Тилли, Филип А. Гиллис, Дороти Таперт, Барбара Кэри, Дэвид Хортон, Сара Берри, Дэн Хикс, Тед Рэйми, Джон Пикс, Лу Хэнкок, Эмбет Дэвидц, Йен Эберкромби, Ричард Гроув, Тимоти Патрик Куилл, Майкл Эрл Рейд, Бриджит Фонда, Патриция Таллман, Тед Рэйми, Дек Андерсон
Описание: Зловещие мертвецы / The Evil Dead (1981) Пятеро подростков поехали отдохнуть в горы в штате Теннесси и остановились в охотничьем домике. А ночью они начали кромсать друг друга на куски, так как в них вселились злые демоны. Как это произошло? Нашли они в домике "Книгу Мертвых". Поставили магнитофонную запись археолога с заклинаниями и случайно вызвали демонов. В живых остался только Брюс Кэмпбелл в роли Эша. Фильм жутковатый и напоминает катание на "американских горках". Для малобюджетного кино эта картина сделана великолепно. Сценарист-режиссер Рэйми, неофит из Детройта, создал уникальное кошмарное настроение и саспенс, используя впечатляющие спецэффекты и графическое насилие. Зрителей со слабыми желудками просят не беспокоиться.

Зловещие мертвецы 2 / Evil Dead II (1987)

Подходящий развлекательный фильм для любителей ужасов, которые не требуют ничего, кроме потоков крови, ковыляющих зомби и динамичного действия. Он даже больше похож на абсурдистскую комедию - много юмора. Спецэффектов и кошмаров так много, что их можно воспринять только как шутки. В уединенном охотничьем домике, где Эш (Кэмпбелл) и его подружка Линда (Бикслер) снова встречаются со злыми мертвецами, профессор Ноуби (Джон Пикс) выпустил на свободу духи этих мертвецов и они стремятся вселиться в живую плоть людей.
-

Зловещие мертвецы 3: Армия тьмы / Army of Darkness (1992)

Благодаря козням сил Зла, герой фильма, вооруженный бензопилой и дробовиком, попадает в Англию времен короля Артура. Ему предстоит сразиться с армией мертвецов, возглавляемой безжалостным демоном – его собственным двойником! Единственный способ вернуться домой – найти таинственную древнюю книгу "Некрономикон", с помощью которой у него появится шанс отправить легионы мертвецов в ад навсегда. Фильм отличается потрясающими спецэффектами и гримом, а уникальное сочетание черной комедии и фильма ужасов обеспечило "Армии Тьмы" звание "культового" среди поклонников обоих жанров.
--

Доп. информация[

Зловещие мертвецы / The Evil Dead
* Голос на кассете принадлежит владельцу «American Movie Classic» Бобу Дориану.
* Картина была снята в настоящей заброшенной хижине, а не в студийных декорациях. Хижина загадочным образом сгорела пару лет спустя. В ней не было подвала, так что съемки проходили в гараже Сэма Рэйми.
* Первоначальным названием фильма было «Книга мертвых».
* Когда Скот и Эшли спускаются в подвал и находят загадачную книгу, на стене весит плакат фильма Уэса Крэйвена «И у холмов есть глаза».
* С момента написания сценария до выхода фильма на экраны прошло целых четыре года.
* «Зловещие мертвецы» основаны на короткометражке «In The Woods», которую Сэм Рэйми снял с целью найти инвесторов для полнометражного фильма.
* После того, как зимой 1979-1980 годов были закончены основные съёмки, многие актёры покинули проект. Окончание съёмок проходило без них, вследствие чего во второй половине фильма героя Брюса Кэмпбелла в кадре окружают совсем другие люди (в финальных титрах они указаны как «fake shemps»). Например, ноги убитого Скотта «играют» ноги Теда Рэйми - брата режиссёра.
* Оригинальный сценарий предписывал, что во время прослушивания записи на магнитофоне все персонажи были должны курить марихуану. Актёры решили использовать в кадре настоящую «траву», но из-за хаоса, возникшего на съёмочной площадке, эту сцену потом пришлось переснимать «на трезвую голову»
* Среди слов «заклинания», звучащего с магнтной ленты, довольно чётко слышатся слова «Sam and Rob das ist hikers dan dee roadsa», то есть «Sam and Rob are the hikers on the road» («Сэм и Роб голосуют на дороге»). Сэм и Роб - это соответственно Сэм Рэйми и Роб Таперт, которые засветились в самом начале фильма в роли рыбаков-автостопщиков.
* Увеличительное стекло на цепочке (подарок Эша Линде) в первоначальной версии сценария должно было сфокусировать солнечные лучи, чтобы сжечь Книгу Мёртвых в финале фильма. Однако, впоследствии данная идея показалась создателям фильма глупой, и от неё отказались. Кстати, в сцене, когда Эш и Линда разглядывают эту цепочку, на руке Линды заметны следы свежей краски - оригинальная золотая цепочка для съёмок была перекрашена в серебряный цвет из распылителя.
* В качестве крови в фильме использовалась смесь из сиропа «Karo», молочного порошка и красного пищевого красителя, а в качестве внутренностей демонов - залитая зелёной краской кукуруза.
* В сцене возвращения героев в лачугу (после того, как выясняется, что мост разрушен) Скотт (персонаж Ричарда Де Манинкора) как будто собирается что-то сказать, но затем останавливается, запрокидывает голову назад и выходит из кадра. В этот момент актёр просто забыл свой текст.
* «После того, как Скотт говорит фразу «They know, they're never gonna let us go», он вскрикивает высоким, не характерным для себя голосом - при озвучке на крик Скотта Сэм Рэйми наложил свой вопль.
* Бутафорское бревно, которым в фильме Эш лупит свою подружку, заимствовано из реквизита раннего фильма Сэма Рэйми «It`s Murder!» (1977).
* Во время съёмок в лесу Брюс Кэмпбелл зацепился ногой за корень и вывихнул лодыжку. Из-за этого в некоторых сценах он заметно прихрамывает.
* Предыстория появления постера «У Холмов есть глаза» следующая: В тот свой фильм Уэс Крэйвен поместил рваный постер фильма «Челюсти», мотивируя это тем, что его «Холмы» гораздо страшнее спилберговских «Челюстей». По аналогии с этим Сэм Рэйми посчитал нужным вставить в своих «Зловещих мертвецов» рваный постер крэйвеновских «Холмов».
-Качество видео: BDRip-AVC
Формат видео: MKV-Видео: MPEG-4 AVC, ≈ 3050 Kbps, 1024x554, 23.976 кадр/с
Аудио: AC3, 6 ch, 384 Кбит/с – Киномания
Аудио 2: AC3, 6 ch, 384 Кбит/с – Гланц и Королёва
Аудио 3: AC3, 6 ch, 384 Кбит/с – А.Гаврилов)

MediaInfo

Format : Matroska
File size : 2.74 GiB
Duration : 1h 25mn
Overall bit rate : 4 588 Kbps
Encoded date : UTC 2012-03-27 11:22:23
Writing application : mkvmerge v4.6.0 ('Still Crazy After All These Years') сборка от Apr 1 2011 21:01:49
Writing library : libebml v1.2.0 + libmatroska v1.1.0
Video #1
ID : 1
Format : AVC
Format/Info : Advanced Video Codec
Format profile : [email protected]
Format settings, CABAC : Yes
Format settings, ReFrames : 10 frames
Muxing mode : Container [email protected]
Codec ID : V_MPEG4/ISO/AVC
Duration : 1h 25mn
Bit rate : 2 960 Kbps
Nominal bit rate : 3 050 Kbps
Width : 1 024 pixels
Height : 554 pixels
Display aspect ratio : 16:9
Frame rate : 23.976 fps
Resolution : 8 bits
Colorimetry : 4:2:0
Scan type : Progressive
Bits/(Pixel*Frame) : 0.218
Stream size : 1.76 GiB (64%)
Title : Zloveschie Mertvetsy / the Evil Dead
Writing library : x264 core 120 r2164 da19765
Encoding settings : cabac=1 / ref=10 / deblock=1:-3:-3 / analyse=0x3:0x133 / me=umh / subme=10 / psy=1 / psy_rd=1.00:0.10 / mixed_ref=1 / me_range=48 / chroma_me=1 / trellis=2 / 8x8dct=1 / cqm=0 / deadzone=21,11 / fast_pskip=0 / chroma_qp_offset=-3 / threads=6 / sliced_threads=0 / nr=0 / decimate=1 / interlaced=0 / bluray_compat=0 / constrained_intra=0 / bframes=6 / b_pyramid=2 / b_adapt=2 / b_bias=0 / direct=3 / weightb=1 / open_gop=0 / weightp=2 / keyint=240 / keyint_min=22 / scenecut=40 / intra_refresh=0 / rc_lookahead=40 / rc=2pass / mbtree=1 / bitrate=3050 / ratetol=1.0 / qcomp=0.60 / qpmin=10 / qpmax=51 / qpstep=4 / cplxblur=20.0 / qblur=0.5 / ip_ratio=1.40 / aq=1:1.00
Audio #2
ID : 2
Format : AC-3
Format/Info : Audio Coding 3
Codec ID : A_AC3
Duration : 1h 25mn
Bit rate mode : Constant
Bit rate : 384 Kbps
Channel(s) : 6 channels
Channel positions : Front: L C R, Surround: L R, LFE
Sampling rate : 48.0 KHz
Stream size : 235 MiB (8%)
Title : MVO (Kinomania)
Language : Russian
Audio #3
ID : 3
Format : AC-3
Format/Info : Audio Coding 3
Codec ID : A_AC3
Duration : 1h 25mn
Bit rate mode : Constant
Bit rate : 384 Kbps
Channel(s) : 6 channels
Channel positions : Front: L C R, Surround: L R, LFE
Sampling rate : 48.0 KHz
Stream size : 235 MiB (8%)
Title : DVO (Glants & Koroleva)
Language : Russian
Audio #4
ID : 4
Format : AC-3
Format/Info : Audio Coding 3
Codec ID : A_AC3
Duration : 1h 25mn
Bit rate mode : Constant
Bit rate : 384 Kbps
Channel(s) : 6 channels
Channel positions : Front: L C R, Surround: L R, LFE
Sampling rate : 48.0 KHz
Stream size : 235 MiB (8%)
Title : AVO (A.Gavrilov)
Audio #5
ID : 5
Format : AC-3
Format/Info : Audio Coding 3
Codec ID : A_AC3
Duration : 1h 25mn
Bit rate mode : Constant
Bit rate : 384 Kbps
Channel(s) : 6 channels
Channel positions : Front: L C R, Surround: L R, LFE
Sampling rate : 48.0 KHz
Stream size : 235 MiB (8%)
Title : Original
Text #6
ID : 6
Format : UTF-8
Codec ID : S_TEXT/UTF8
Codec ID/Info : UTF-8 Plain Text
Title : Goblin
Language : Russian
Text #7
ID : 7
Format : UTF-8
Codec ID : S_TEXT/UTF8
Codec ID/Info : UTF-8 Plain Text
Title : Rip by _paravoz_

MediaInfo

Format : Matroska
File size : 2.74 GiB
Duration : 1h 24mn
Overall bit rate : 4 654 Kbps
Movie name : -=HANSMER=-
Encoded date : UTC 2012-03-28 23:45:18
Writing application : mkvmerge v4.6.0 ('Still Crazy After All These Years') сборка от Apr 1 2011 21:01:49
Writing library : libebml v1.2.0 + libmatroska v1.1.0
Video #1
ID : 1
Format : AVC
Format/Info : Advanced Video Codec
Format profile : [email protected]
Format settings, CABAC : Yes
Format settings, ReFrames : 10 frames
Muxing mode : Container [email protected]
Codec ID : V_MPEG4/ISO/AVC
Duration : 1h 24mn
Bit rate : 3 025 Kbps
Nominal bit rate : 3 115 Kbps
Width : 1 024 pixels
Height : 554 pixels
Display aspect ratio : 16:9
Frame rate : 23.976 fps
Resolution : 8 bits
Colorimetry : 4:2:0
Scan type : Progressive
Bits/(Pixel*Frame) : 0.222
Stream size : 1.78 GiB (65%)
Title : Zloveschie Mertvetsy / the Evil Dead
Writing library : x264 core 120 r2164 da19765
Encoding settings : cabac=1 / ref=10 / deblock=1:-3:-3 / analyse=0x3:0x133 / me=umh / subme=10 / psy=1 / psy_rd=1.00:0.10 / mixed_ref=1 / me_range=48 / chroma_me=1 / trellis=2 / 8x8dct=1 / cqm=0 / deadzone=21,11 / fast_pskip=0 / chroma_qp_offset=-3 / threads=6 / sliced_threads=0 / nr=0 / decimate=1 / interlaced=0 / bluray_compat=0 / constrained_intra=0 / bframes=6 / b_pyramid=2 / b_adapt=2 / b_bias=0 / direct=3 / weightb=1 / open_gop=0 / weightp=2 / keyint=240 / keyint_min=22 / scenecut=40 / intra_refresh=0 / rc_lookahead=40 / rc=2pass / mbtree=1 / bitrate=3115 / ratetol=1.0 / qcomp=0.60 / qpmin=10 / qpmax=51 / qpstep=4 / cplxblur=20.0 / qblur=0.5 / ip_ratio=1.40 / aq=1:1.00
Audio #2
ID : 2
Format : AC-3
Format/Info : Audio Coding 3
Codec ID : A_AC3
Duration : 1h 24mn
Bit rate mode : Constant
Bit rate : 384 Kbps
Channel(s) : 6 channels
Channel positions : Front: L C R, Surround: L R, LFE
Sampling rate : 48.0 KHz
Stream size : 231 MiB (8%)
Title : MVO (Kinomania)
Language : Russian
Audio #3
ID : 3
Format : AC-3
Format/Info : Audio Coding 3
Codec ID : A_AC3
Duration : 1h 24mn
Bit rate mode : Constant
Bit rate : 384 Kbps
Channel(s) : 6 channels
Channel positions : Front: L C R, Surround: L R, LFE
Sampling rate : 48.0 KHz
Stream size : 231 MiB (8%)
Title : DVO (Glants & Koroleva)
Language : Russian
Audio #4
ID : 4
Format : AC-3
Format/Info : Audio Coding 3
Codec ID : A_AC3
Duration : 1h 24mn
Bit rate mode : Constant
Bit rate : 384 Kbps
Channel(s) : 6 channels
Channel positions : Front: L C R, Surround: L R, LFE
Sampling rate : 48.0 KHz
Stream size : 231 MiB (8%)
Title : AVO (Mikhalev)
Language : Russian
Audio #5
ID : 5
Format : AC-3
Format/Info : Audio Coding 3
Codec ID : A_AC3
Duration : 1h 24mn
Bit rate mode : Constant
Bit rate : 384 Kbps
Channel(s) : 6 channels
Channel positions : Front: L C R, Surround: L R, LFE
Sampling rate : 48.0 KHz
Stream size : 231 MiB (8%)
Title : Original
Text #6
ID : 6
Format : UTF-8
Codec ID : S_TEXT/UTF8
Codec ID/Info : UTF-8 Plain Text
Title : Rip by _paravoz_
Text #7
ID : 7
Format : UTF-8
Codec ID : S_TEXT/UTF8
Codec ID/Info : UTF-8 Plain Text
Title : Nemetskie
Language : German

MediaInfo

Format : Matroska
File size : 2.63 GiB
Duration : 1h 20mn
Overall bit rate : 4 650 Kbps
Encoded date : UTC 2012-03-29 12:03:53
Writing application : mkvmerge v4.6.0 ('Still Crazy After All These Years') сборка от Apr 1 2011 21:01:49
Writing library : libebml v1.2.0 + libmatroska v1.1.0
Video #1
ID : 1
Format : AVC
Format/Info : Advanced Video Codec
Format profile : [email protected]
Format settings, CABAC : Yes
Format settings, ReFrames : 10 frames
Muxing mode : Container [email protected]
Codec ID : V_MPEG4/ISO/AVC
Duration : 1h 20mn
Bit rate : 3 213 Kbps
Nominal bit rate : 3 315 Kbps
Width : 1 024 pixels
Height : 554 pixels
Display aspect ratio : 16:9
Frame rate : 23.976 fps
Resolution : 8 bits
Colorimetry : 4:2:0
Scan type : Progressive
Bits/(Pixel*Frame) : 0.236
Stream size : 1.81 GiB (69%)
Title : Zloveschie Mertvetsy 3 / the Evil Dead III
Writing library : x264 core 120 r2164 da19765
Encoding settings : cabac=1 / ref=10 / deblock=1:-3:-3 / analyse=0x3:0x133 / me=umh / subme=10 / psy=1 / psy_rd=1.00:0.10 / mixed_ref=1 / me_range=48 / chroma_me=1 / trellis=2 / 8x8dct=1 / cqm=0 / deadzone=21,11 / fast_pskip=0 / chroma_qp_offset=-3 / threads=6 / sliced_threads=0 / nr=0 / decimate=1 / interlaced=0 / bluray_compat=0 / constrained_intra=0 / bframes=6 / b_pyramid=2 / b_adapt=2 / b_bias=0 / direct=3 / weightb=1 / open_gop=0 / weightp=2 / keyint=240 / keyint_min=22 / scenecut=40 / intra_refresh=0 / rc_lookahead=40 / rc=2pass / mbtree=1 / bitrate=3315 / ratetol=1.0 / qcomp=0.60 / qpmin=10 / qpmax=51 / qpstep=4 / cplxblur=20.0 / qblur=0.5 / ip_ratio=1.40 / aq=1:1.00
Audio #2
ID : 2
Format : AC-3
Format/Info : Audio Coding 3
Codec ID : A_AC3
Duration : 1h 20mn
Bit rate mode : Constant
Bit rate : 192 Kbps
Channel(s) : 2 channels
Channel positions : L R
Sampling rate : 48.0 KHz
Stream size : 111 MiB (4%)
Title : MVO (zakadrovy)
Language : Russian
Audio #3
ID : 3
Format : AC-3
Format/Info : Audio Coding 3
Codec ID : A_AC3
Duration : 1h 20mn
Bit rate mode : Constant
Bit rate : 384 Kbps
Channel(s) : 6 channels
Channel positions : Front: L C R, Surround: L R, LFE
Sampling rate : 48.0 KHz
Stream size : 222 MiB (8%)
Title : DVO (Glants & Koroleva)
Language : Russian
Audio #4
ID : 4
Format : AC-3
Format/Info : Audio Coding 3
Codec ID : A_AC3
Duration : 1h 20mn
Bit rate mode : Constant
Bit rate : 384 Kbps
Channel(s) : 6 channels
Channel positions : Front: L C R, Surround: L R, LFE
Sampling rate : 48.0 KHz
Stream size : 222 MiB (8%)
Title : AVO (Mikhalev)
Language : Russian
Audio #5
ID : 5
Format : AC-3
Format/Info : Audio Coding 3
Codec ID : A_AC3
Duration : 1h 20mn
Bit rate mode : Constant
Bit rate : 384 Kbps
Channel(s) : 6 channels
Channel positions : Front: L C R, Surround: L R, LFE
Sampling rate : 48.0 KHz
Stream size : 222 MiB (8%)
Title : Original
Text #6
ID : 6
Format : UTF-8
Codec ID : S_TEXT/UTF8
Codec ID/Info : UTF-8 Plain Text
Title : Russkie
Language : Russian
Text #7
ID : 7
Format : UTF-8
Codec ID : S_TEXT/UTF8
Codec ID/Info : UTF-8 Plain Text
Title : Rip by _paravoz_

Скриншоты





Последний раз редактировалось: regent.tmz (2016-02-04 14:12), всего редактировалось 3 раз(а)

Создавать темы 14-Дек-2015 18:50

[Профиль]  [ЛС] 

sarvar-aka

Стаж: 5 лет

Сообщений: 34

Симпатии: 1

Автор, вы вообще раздавать собираетесь?

Создавать темы 20-Дек-2015 21:43

[Профиль]  [ЛС] 

regent.tmz ®

Стаж: 1 год 10 месяцев

Сообщений: 25

Симпатии: 36

963037Автор, вы вообще раздавать собираетесь?
конечно собираюсь! просто из за недавних проблем с трекером я временно приостановил все свои раздачи

Создавать темы 03-Фев-2016 11:18

[Профиль]  [ЛС] 

silvermen

Стаж: 5 лет 4 месяца

Сообщений: 2

Осталось чуток...Кто нить раздавать будет???

Создавать темы 23-Май-2016 12:12

[Профиль]  [ЛС] 

AWA

Стаж: 1 год 6 месяцев

Сообщений: 1

Дайте раздачуууууу

Создавать темы 28-Июн-2016 18:49

[Профиль]  [ЛС] 
Показать сообщения:    
Ответить на тему

Текущее время: 18-Окт 21:38

Часовой пояс: UTC + 5



Вы не можете начинать темы
Вы не можете отвечать на сообщения
Вы не можете редактировать свои сообщения
Вы не можете удалять свои сообщения
Вы не можете голосовать в опросах
Вы не можете прикреплять файлы к сообщениям
Вы не можете скачивать файлы