Савва. Сердце воина (Максим Фадеев) [2015, Россия, мультфильм, приключения, фэнтези, WEB-DLRip]

Ответить на тему
 

-ARTUR- ®

Стаж: 2 года 1 месяц

Сообщений: 50

Симпатии: 78

Савва. Сердце воина -«Нужно только захотеть всем сердцем»- Страна: Россия
Жанр: мультфильм, приключения, фэнтези
Год выпуска: 2015
Продолжительность: 01:27:11
Перевод: Не требуется
Cубтитры: нет-Режиссер: Максим Фадеев-В ролях: Константин Хабенский, Фёдор Бондарчук, Армен Джигарханян, Григорий Лепс, Сергей Шнуров, Михаил Галустян, Глюкоза, Сергей Гармаш, Лолита Милявская, Николай Басков-Описание: История о мальчике Савве десяти лет, который живёт в маленькой лесной деревне. Когда-то деревню от врагов защищали благородные белые волки. Но однажды волки исчезли и на деревню напала банда свирепых Гиен. Савве удаётся сбежать в лес, где он знакомится с Ангой — последним белым волком. Анга рассказывает Савве о могущественном Волшебнике, который живёт на горе и может помочь Савве освободить его деревню. Но, к сожалению, эту гору окружает огромное войско, под предводительством злобной Мамы ЖоЗи — трёхголовой королевы обезьян. Справляясь с непреодолимыми трудностями, Савва и Анга начинают свой длинный и опасный путь на гору. По пути к ним присоединяются и другие путешественники: Пусик — странное розовое пушистое существо; Фафл — самоуверенный тип, похожий на француза, который в действительности является заколдованным полубароном и вынужден носить на плече короля комаров; принцессу болотного племени Нанти и других. У всех есть свои личные причины, чтобы идти к Волшебнику. По пути к своей цели, друзьям предстоит преодолеть множество препятствий, узнать страшные тайны и вступить в битву с войском обезьян и коварной Мамой ЖоЗи.- -Доп. информация:
Сценарий: Максим Фадеев, Грегори Пуарье, Александр Чистяков
Продюсер: Александр Чистяков, Дмитрий Рудовский, Фёдор Бондарчук
Композитор: Максим Фадеев-Бюджет: 1 000 000 000 руб.
Сборы в России: $2 905 019-Премьера (мир): 13 ноября 2015
Премьера (РФ): 12 ноября 2015, «Наше Кино» 3D-Зрители: Россия 900.3 тыс.-Возраст: зрителям, достигшим 6 лет
Рейтинг MPAA: зрителям, достигшим 6 лет-Качество видео: WEB-DLRip
Формат видео: AVI
Видео кодек: XviD
Аудио кодек: AC3
Видео данные: XviD, 1851 kb/s, 720x304
Аудио данные: AC3, 384 kb/s (2 ch)

MediaInfo

Format                                   : AVI
Format/Info                              : Audio Video Interleave
File size                                : 1.37 GiB
Duration                                 : 1h 27mn
Overall bit rate                         : 2 244 Kbps
Movie name                               : CaBBa.2015.O.WEB-DLRip.14OOMb
Writing application                      : VirtualDubMod 1.5.10.2 (build 2540/release)
Original source form/Name                : Movie
Video
ID                                       : 0
Format                                   : MPEG-4 Visual
Format profile                           : Advanced [email protected]
Format settings, BVOP                    : 2
Format settings, QPel                    : No
Format settings, GMC                     : No warppoints
Format settings, Matrix                  : Default (MPEG)
Codec ID                                 : XVID
Codec ID/Hint                            : XviD
Duration                                 : 1h 27mn
Bit rate                                 : 1 851 Kbps
Width                                    : 720 pixels
Height                                   : 304 pixels
Display aspect ratio                     : 2.35:1
Frame rate                               : 23.976 fps
Color space                              : YUV
Chroma subsampling                       : 4:2:0
Bit depth                                : 8 bits
Scan type                                : Progressive
Compression mode                         : Lossy
Bits/(Pixel*Frame)                       : 0.353
Stream size                              : 1.13 GiB (82%)
Writing library                          : XviD 1.2.1 (UTC 2008-12-04)
Audio
ID                                       : 1
Format                                   : AC-3
Format/Info                              : Audio Coding 3
Mode extension                           : CM (complete main)
Format settings, Endianness              : Big
Codec ID                                 : 2000
Duration                                 : 1h 27mn
Bit rate mode                            : Constant
Bit rate                                 : 384 Kbps
Channel(s)                               : 2 channels
Channel positions                        : Front: L R
Sampling rate                            : 48.0 KHz
Bit depth                                : 16 bits
Compression mode                         : Lossy
Stream size                              : 239 MiB (17%)
Alignment                                : Split accross interleaves
Interleave, duration                     : 42 ms (1.00 video frame)
Interleave, preload duration             : 500 ms

Скриншот c названием фильма

Скриншоты





Создавать темы 14-Дек-2015 21:52

[Профиль]  [ЛС] 

ulkiora5

Стаж: 4 года 3 месяца

Сообщений: 50

Симпатии: 25

чего реально бюджет миллиард рублей?

Создавать темы 15-Дек-2015 10:56

[Профиль]  [ЛС] 
Показать сообщения:    
Ответить на тему

Текущее время: 24-Сен 01:06

Часовой пояс: UTC + 5



Вы не можете начинать темы
Вы не можете отвечать на сообщения
Вы не можете редактировать свои сообщения
Вы не можете удалять свои сообщения
Вы не можете голосовать в опросах
Вы не можете прикреплять файлы к сообщениям
Вы не можете скачивать файлы