Опасная встреча / Rendez-Vous (Антуанетта Бёме) [2015, Нидерланды, триллер, DVDRip] (DVO)

Ответить на тему
 

lucky999 ®

Стаж: 2 года

Сообщений: 32

Симпатии: 43

Опасная встреча / Rendez-Vous
Страна: Нидерланды
Жанр: триллер
Год выпуска: 2015
Продолжительность: 01:35:56
Перевод: Любительский (одноголосый)
Cубтитры: нет
Режиссер: Антуанетта Бёме
В ролях: Пьер Буланжер, Марк ван Эувен, Питер Пол Мюллер, Лоэс Хаверкорт, Ева Дёйвестейн, Дженнифер Хоффман, Тамар Баруч, Роза Рютен, Корентен Лобе
Описание: Симона и Эрик унаследовали старинное поместье во Франции. Они решают, что это прекрасная возможность начать новую жизнь и вдохнуть свежее дыхание в свои отношения. Эрик сразу загорается идеей устроить в поместье отель, а Симона скучает и вскоре оказывается в постели соседа — красивого молодого человека. И пока муж строит отель и грандиозные планы, жена с соседом занимаются сексом. Но рано или поздно все заканчивается, и все тайное становится явным…
Доп. информация:
сценарий: Марьёлейн Бёмер, Dorien Goertzen
продюсер: Рэйчел ван Боммел, Хильде Де Лаере, Dijan den Hartog, ...
оператор: Йерун де Брёйн
композитор: Мерлейн Сниткер
художник: Курт Лойенс, Marc Ridremont, Мэнон Блом, ...
монтаж: Марк Бехтолд
IMDB рейтинг: 5.7/10
КиноПоиск рейтинг: 0.0/10
Качество видео: DVDRip
Формат видео: AVI
Видео: Xvid 688x288 25fps 955kbps [V: mpeg4 advanced simple profile, yuv420p, 688x288, 955 kb/s]
Аудио: MP3 48000Hz stereo 128kbps [A: mp3, 48000 Hz, stereo, 128 kb/s]

MediaInfo

General
Complete name : E:\torrent\Rendez.Vous.2015.DVDRip.750MB.Lord32x.Studio.avi
Format : AVI
Format/Info : Audio Video Interleave
File size : 750 MiB
Duration : 1h 35mn
Overall bit rate : 1 094 Kbps
Writing application : VirtualDubMod 1.5.10.3 | www.virtualdub-fr.org || (build 2550/release)
Writing library : VirtualDubMod build 2550/release
Video
ID : 0
Format : MPEG-4 Visual
Format profile : Advanced [email protected]
Format settings, BVOP : 1
Format settings, QPel : No
Format settings, GMC : No warppoints
Format settings, Matrix : Default (H.263)
Codec ID : XVID
Codec ID/Hint : XviD
Duration : 1h 35mn
Bit rate : 956 Kbps
Width : 688 pixels
Height : 288 pixels
Display aspect ratio : 2.40:1
Frame rate : 25.000 fps
Color space : YUV
Chroma subsampling : 4:2:0
Bit depth : 8 bits
Scan type : Progressive
Compression mode : Lossy
Bits/(Pixel*Frame) : 0.193
Stream size : 656 MiB (87%)
Writing library : XviD 1.2.1 (UTC 2008-12-04)
Audio
ID : 1
Format : MPEG Audio
Format version : Version 1
Format profile : Layer 3
Mode : Joint stereo
Mode extension : MS Stereo
Codec ID : 55
Codec ID/Hint : MP3
Duration : 1h 35mn
Bit rate mode : Constant
Bit rate : 128 Kbps
Channel(s) : 2 channels
Sampling rate : 48.0 KHz
Compression mode : Lossy
Stream size : 87.8 MiB (12%)
Alignment : Aligned on interleaves
Interleave, duration : 40 ms (1.00 video frame)
Interleave, preload duration : 504 ms

Скриншоты




Создавать темы 14-Дек-2015 22:25

[Профиль]  [ЛС] 
Показать сообщения:    
Ответить на тему

Текущее время: 25-Сен 21:41

Часовой пояс: UTC + 5



Вы не можете начинать темы
Вы не можете отвечать на сообщения
Вы не можете редактировать свои сообщения
Вы не можете удалять свои сообщения
Вы не можете голосовать в опросах
Вы не можете прикреплять файлы к сообщениям
Вы не можете скачивать файлы