Рик и Морти / Rick and Morty / Сезон: 2 / Серии: 1-10 (10) (Пит Мишелс / Pete Michels) [2015, Мультсериал, Комедия, Фантастика, adult swim, WEB-DL 1080p] VO (Сыендук) + Original + Subs (eng)

Ответить на тему
 

outoforder ®

Стаж: 5 лет 1 месяц

Сообщений: 812

Симпатии: 172

Рик и Морти / Rick and Morty
Страна: США
Жанр: Мультсериал, комедия, фантастика, adult swim
Продолжительность: ~22 минуты
Год выпуска: 2015
Перевод: Одноголосый закадровый
Русские субтитры: нет
Режиссёр: Пит Мишелс / Pete Michels
Формат: MKV, 1080P
Роли озвучивали: Джастин Ройланд, Крис Парнелл, Спенсер Грэммер, Сара Чок, Кари Уолгрен, Фил Хендри, Брэндон Джонсон, Том Кенни, Райан Ридли, Дэн Хэрмон и другие.-Описание: Рик и Морти - американский, научно-фантастический комедийно-приключенческий мультсериал. В центре внимания - неунывающая парочка, состоящая из внука-школьника и дедушки-ученого. Вместе они совершат много увлекательных путешествий и докажут существование невероятных явлений.
Новое творение от автора сериала "Сообщество" ("Community") Дэна Хэрмона. Приключения обычного мальчика Морти и его деда Рика — алкоголика и гениального изобретателя в одном лице.-Видео:
* AVC, 1916x1076, 23,976 fps, ~5000 kbps (1-2, 5-8 серии)
* AVC, 1920x1080, 23,976 fps, ~5000 kbps (3, 4, 9, 10 серии)
Аудио Rus: AC3, 48Chz, 2 ch, 160 kbps (Сыендук)
Аудио Eng: AC3, 48Chz, 6 ch, 384 kbps
Субтитры: английские, русские (forced) [только 2-я серия]-

Подробные технические данные

General
Unique ID : 193595471834371864654389920588222288186 (0x91A521B286F822A2AAA681906811D13A)
Complete name : C:\Rick and Morty (Season 2) WEB-DL 1080p\01. A Rickle in Time.mkv
Format : Matroska
Format version : Version 4 / Version 2
File size : 909 MiB
Duration : 22mn 52s
Overall bit rate : 5 556 Kbps
Encoded date : UTC 2015-09-21 23:23:56
Writing application : mkvmerge v8.2.0 ('World of Adventure') 64bit
Writing library : libebml v1.3.1 + libmatroska v1.4.2
Attachements : cover.jpeg
DURATION : 00:22:46.364000000
NUMBER_OF_FRAMES : 650
NUMBER_OF_BYTES : 23750
_STATISTICS_WRITING_APP : mkvmerge v8.2.0 ('World of Adventure') 64bit
_STATISTICS_WRITING_DATE_UT : 2015-09-21 23:23:56
_STATISTICS_TAGS : BPS DURATION NUMBER_OF_FRAMES NUMBER_OF_BYTES
Video
ID : 1
Format : AVC
Format/Info : Advanced Video Codec
Format profile : [email protected]
Format settings, CABAC : Yes
Format settings, ReFrames : 4 frames
Codec ID : V_MPEG4/ISO/AVC
Duration : 22mn 52s
Bit rate : 4 902 Kbps
Width : 1 916 pixels
Height : 1 076 pixels
Display aspect ratio : 16:9
Frame rate mode : Constant
Frame rate : 23.976 fps
Color space : YUV
Chroma subsampling : 4:2:0
Bit depth : 8 bits
Scan type : Progressive
Bits/(Pixel*Frame) : 0.099
Stream size : 802 MiB (88%)
Language : English
Default : Yes
Forced : No
Color range : Limited
Color primaries : BT.709
Transfer characteristics : BT.709
Matrix coefficients : BT.709
Audio #1
ID : 2
Format : AC-3
Format/Info : Audio Coding 3
Mode extension : CM (complete main)
Format settings, Endianness : Big
Codec ID : A_AC3
Duration : 22mn 52s
Bit rate mode : Constant
Bit rate : 160 Kbps
Channel(s) : 2 channels
Channel positions : Front: L R
Sampling rate : 48.0 KHz
Compression mode : Lossy
Stream size : 26.2 MiB (3%)
Title : Сыендук
Language : Russian
Default : Yes
Forced : No
Audio #2
ID : 3
Format : AC-3
Format/Info : Audio Coding 3
Mode extension : CM (complete main)
Format settings, Endianness : Big
Codec ID : A_AC3
Duration : 22mn 52s
Bit rate mode : Constant
Bit rate : 384 Kbps
Channel(s) : 6 channels
Channel positions : Front: L C R, Side: L R, LFE
Sampling rate : 48.0 KHz
Compression mode : Lossy
Stream size : 62.8 MiB (7%)
Language : English
Default : No
Forced : No
Text
ID : 4
Format : UTF-8
Codec ID : S_TEXT/UTF8
Codec ID/Info : UTF-8 Plain Text
Language : English
Default : No
Forced : No

Список серий

01. ... (A Rickle in Time)
02. ... (Mortynight Run)
03. ... (Auto Erotic Assimilation)
04. Вспомнить Вэ Сэ Йо (Total Rickall)
05. Пора Швифтануться (Get Schwifty)
06. Наверное, Рики сошли с ума (The Ricks Must Be Crazy)
07. Большой переполох в маленьком Санчезе (Big Trouble in Little Sanchez)
08. Межвселенский Кабель 2: Искушение Судьбы (Interdimensional Cable 2: Tempting Fate)
09. Сцудная Ночь (Look Who's Purging Now)
10. Свадебные Сквончеры (The Wedding Squanchers)

Скриншоты












Последний раз редактировалось: outoforder (2016-05-27 10:33), всего редактировалось 2 раз(а)

Создавать темы 15-Дек-2015 14:10

[Профиль]  [ЛС] 

outoforder ®

Стаж: 5 лет 1 месяц

Сообщений: 812

Симпатии: 172

This
1-й сезон
720p

Создавать темы 15-Дек-2015 15:04

[Профиль]  [ЛС] 
Показать сообщения:    
Ответить на тему

Текущее время: 18-Дек 13:50

Часовой пояс: UTC + 5



Вы не можете начинать темы
Вы не можете отвечать на сообщения
Вы не можете редактировать свои сообщения
Вы не можете удалять свои сообщения
Вы не можете голосовать в опросах
Вы не можете прикреплять файлы к сообщениям
Вы не можете скачивать файлы