Нелепая шестёрка / The Ridiculous 6 (Фрэнк Корачи) [2015, США, комедия, вестерн, WEB-DLRip] MVO[Coldfilm] [Original Eng]

Ответить на тему
 

ruhal ®

Стаж: 2 года 6 месяцев

Сообщений: 1181

Симпатии: 1836

-Нелепая шестёрка / The Ridiculous 6- Страна: США
Жанр: комедия, вестерн
Год выпуска: 2015
Продолжительность: 01:59:00-Перевод: Любительский (многоголосый) [Coldfilm]
Cубтитры: нет
Оригинальная аудиодорожка: английский-Режиссер: Фрэнк Корачи-В ролях: Адам Сэндлер, Тэйлор Лотнер, Стив Бушеми, Терри Крюс, Роб Шнайдер, Уитни Каммингс, Харви Кейтель, Ник Нолти, Дэнни Трехо, Люк Уилсон-Описание:Комедийный вестерн расскажет историю мужчины, оставшегося в раннем детстве сиротой и выросшего в племени индейцев апачи, которые его воспитали и выучили в своих традициях и законах. Главный герой по прозвищу «Белый Нож» - преступник, который неожиданно обнаруживает, что не один на свете: у него есть пятеро сводных братьев. Объединившись, они принимают решение отыскать их отца, затерявшегося где-то на просторах Дикого Запада. Вот тут-то и начинаются настоящие приключения, которые настолько же захватывающие, насколько комичны.-Качество видео: WEB-DLRip
Формат видео: AVI
Видео: Xvid 720x304 23.976fps 1841kbps
Аудио: Dolby AC3 48000Hz 6ch 384kbps[Rus]
Аудио 2: Dolby AC3 48000Hz 6ch 384kbps[Eng]
-

MediaInfo

General
Complete name : E:\Films\R1dicul0us.6.2015.P.WEBDLRip.2.18Gb.avi
Format : AVI
Format/Info : Audio Video Interleave
File size : 2.18 GiB
Duration : 1h 59mn
Overall bit rate : 2 628 Kbps
Movie name : R1dicul0us.6.2015.P.WEBDLRip.2.18Gb
Writing application : VirtualDubMod 1.5.10.3 | www.virtualdub-fr.org || (build 2550/release)
Original source form/Name : Movie
Video
ID : 0
Format : MPEG-4 Visual
Format profile : Advanced [email protected]
Format settings, BVOP : 2
Format settings, QPel : No
Format settings, GMC : No warppoints
Format settings, Matrix : Default (MPEG)
Codec ID : XVID
Codec ID/Hint : XviD
Duration : 1h 59mn
Bit rate : 1 745 Kbps
Width : 720 pixels
Height : 304 pixels
Display aspect ratio : 2.35:1
Frame rate : 23.976 fps
Color space : YUV
Chroma subsampling : 4:2:0
Bit depth : 8 bits
Scan type : Progressive
Compression mode : Lossy
Bits/(Pixel*Frame) : 0.332
Stream size : 1.45 GiB (66%)
Writing library : XviD 67
Audio #1
ID : 1
Format : AC-3
Format/Info : Audio Coding 3
Mode extension : CM (complete main)
Format settings, Endianness : Big
Codec ID : 2000
Duration : 1h 58mn
Bit rate mode : Constant
Bit rate : 384 Kbps
Channel(s) : 6 channels
Channel positions : Front: L C R, Side: L R, LFE
Sampling rate : 48.0 KHz
Bit depth : 16 bits
Compression mode : Lossy
Delay relative to video : 20ms
Stream size : 327 MiB (15%)
Alignment : Split accross interleaves
Audio #2
ID : 2
Format : AC-3
Format/Info : Audio Coding 3
Mode extension : CM (complete main)
Format settings, Endianness : Big
Codec ID : 2000
Duration : 1h 59mn
Bit rate mode : Constant
Bit rate : 384 Kbps
Channel(s) : 6 channels
Channel positions : Front: L C R, Side: L R, LFE
Sampling rate : 48.0 KHz
Bit depth : 16 bits
Compression mode : Lossy
Stream size : 327 MiB (15%)
Alignment : Split accross interleaves

Скриншот c названием фильма

Скриншоты




Создавать темы 15-Дек-2015 15:54

[Профиль]  [ЛС] 

Torrent

Стаж: 4 года 8 месяцев

Сообщений: 28

Симпатии: 1

как кинцо?

Создавать темы 15-Дек-2015 19:00

[Профиль]  [ЛС] 

Kakcam

Стаж: 6 лет 10 месяцев

Сообщений: 137

Симпатии: 7

когда лицуха?

Создавать темы 15-Дек-2015 22:52

[Профиль]  [ЛС] 

Kakcam

Стаж: 6 лет 10 месяцев

Сообщений: 137

Симпатии: 7

962349как кинцо?
помоему все фильмы в которых снимается Адам Сендлер все хорошие))

Создавать темы 15-Дек-2015 22:53

[Профиль]  [ЛС] 

sancho_84

Стаж: 6 лет 9 месяцев

Сообщений: 16

Симпатии: 1

962349как кинцо?
если коротко Дэнни Трехо.... и все

Создавать темы 16-Дек-2015 00:42

[Профиль]  [ЛС] 

snowey

Стаж: 3 года 8 месяцев

Сообщений: 8

Симпатии: 1

так хорош он или нет? рейтинг ниже 6, кажется что неоч

Создавать темы 29-Дек-2015 23:08

[Профиль]  [ЛС] 

abilaykhan12

Стаж: 5 лет 1 месяц

Сообщений: 116

Симпатии: 2

snowey, фильм полный бред...адекватная оценка...и еще перевод не очень

Создавать темы 10-Янв-2016 14:18

[Профиль]  [ЛС] 

icefrog_ss

Стаж: 5 лет 1 месяц

Сообщений: 69

Симпатии: 3

aцтой. Кому нравится Сэндлер, не надейтесь на хорошую комедию. Даже не стоит смотреть

Создавать темы 11-Янв-2016 14:11

[Профиль]  [ЛС] 

aziko

Стаж: 6 лет 5 месяцев

Сообщений: 47

Симпатии: 7

тупой комедия, после просмотра 10-15 минут хотел удалить и удалил)))

Создавать темы 27-Янв-2016 22:54

[Профиль]  [ЛС] 
Показать сообщения:    
Ответить на тему

Текущее время: 18-Окт 10:52

Часовой пояс: UTC + 5



Вы не можете начинать темы
Вы не можете отвечать на сообщения
Вы не можете редактировать свои сообщения
Вы не можете удалять свои сообщения
Вы не можете голосовать в опросах
Вы не можете прикреплять файлы к сообщениям
Вы не можете скачивать файлы