меч дракона / Dragon Blade 2015 from ExKinoRay (Дэниэл Ли) [2015, Китай, Боевики, Драмы, Приключения, HDRip] (VO) (Sub Rus)

Ответить на тему
 

no1 ®

Стаж: 3 года 11 месяцев

Сообщений: 1

меч дракона / Dragon Blade 2015 from ExKinoRay
Страна: Китай
Жанр: Боевики, Драмы, Приключения
Год выпуска: 2015
Продолжительность: 02.07.15
Перевод: Одноголосый закадровый
Cубтитры: русские
Режиссер: Дэниэл Ли
В ролях: Джеки Чан, Джон Кьюсак, Эдриан Броуди, Чхве Ши Вон, Линь Пэн, Мика Ванг, Янг Сяо, Таили Ванг, Тинь Чи Хунг, Шаофэн Фенг
Описание: Действие фильма разворачивается в Древнем Китае во времена правления династии Хань. Римский полководец Луция с легионом своих солдат оказывается на территории Китая. В это же время командир отряда охраны Западного региона Хо Ань в результате действий своих врагов становится рабом. И этим двум воинам было суждено встретиться в Западной пустыне, где развернётся эпическое сражение. Однако биться они будут не друг против друга, как можно было бы подумать, а против алчного императора Тиберия за суверенитет Китая.
Качество видео: HDRip
Формат видео: MKV
Видео: MPEG-4 AVC, 3225 Kбит/с, 1024x428, 24 кадр/с
Аудио:
Русский (AC3, 2 ch, 384 Кбит/с), (AC3, 6 ch, 384 Кбит/с),
английский (AC3, 6 ch, 384 Кбит/с)

MediaInfo

General
Unique ID : 223291009660669813385074815933241203239 (0xA7FC48C02358E05F8F37FCD2C0E59A27)
Complete name : C:Dragon.Blade.2015.HDRip.AVC.ExKinoRay.mkv
Format : Matroska
Format version : Version 4 / Version 2
File size : 3.89 GiB
Duration : 2h 7mn
Overall bit rate : 4 378 Kbps
Movie name : Dragon Blade 2015 from ExKinoRay
Encoded date : UTC 2015-06-28 23:44:46
Writing application : mkvmerge v6.6.0 ('The Edge Of The In Between') built on Dec 1 2013 17:55:00
Writing library : libebml v1.3.0 + libmatroska v1.4.1
Video
ID : 1
Format : AVC
Format/Info : Advanced Video Codec
Format profile : [email protected]
Format settings, CABAC : Yes
Format settings, ReFrames : 11 frames
Codec ID : V_MPEG4/ISO/AVC
Duration : 2h 7mn
Bit rate : 3 225 Kbps
Width : 1 024 pixels
Height : 428 pixels
Display aspect ratio : 2.40:1
Frame rate mode : Constant
Frame rate : 24.000 fps
Color space : YUV
Chroma subsampling : 4:2:0
Bit depth : 8 bits
Scan type : Progressive
Bits/(Pixel*Frame) : 0.307
Stream size : 2.79 GiB (72%)
Title : Enigma
Writing library : x264 core 133 r2334 a3ac64b
Encoding settings : cabac=1 / ref=11 / deblock=1:-3:-3 / analyse=0x3:0x113 / me=umh / subme=10 / psy=1 / psy_rd=1.00:0.20 / mixed_ref=1 / me_range=32 / chroma_me=1 / trellis=2 / 8x8dct=1 / cqm=0 / deadzone=21,11 / fast_pskip=0 / chroma_qp_offset=-3 / threads=12 / lookahead_threads=2 / sliced_threads=0 / nr=0 / decimate=0 / interlaced=0 / bluray_compat=0 / constrained_intra=0 / bframes=9 / b_pyramid=2 / b_adapt=2 / b_bias=0 / direct=3 / weightb=1 / open_gop=0 / weightp=2 / keyint=240 / keyint_min=24 / scenecut=40 / intra_refresh=0 / rc=2pass / mbtree=0 / bitrate=3225 / ratetol=1.0 / qcomp=0.65 / qpmin=0 / qpmax=51 / qpstep=4 / cplxblur=20.0 / qblur=0.5 / ip_ratio=1.40 / pb_ratio=1.30 / aq=1:1.00
Language : English
Default : Yes
Forced : No
Color primaries : BT.709
Transfer characteristics : BT.709
Matrix coefficients : BT.709
Audio #1
ID : 2
Format : AC-3
Format/Info : Audio Coding 3
Mode extension : CM (complete main)
Format settings, Endianness : Big
Codec ID : A_AC3
Duration : 2h 7mn
Bit rate mode : Constant
Bit rate : 384 Kbps
Channel(s) : 6 channels
Channel positions : Front: L C R, Side: L R, LFE
Sampling rate : 48.0 KHz
Bit depth : 16 bits
Compression mode : Lossy
Stream size : 349 MiB (9%)
Title : AVO Dolskiy
Language : Russian
Default : No
Forced : No
Audio #2
ID : 3
Format : AC-3
Format/Info : Audio Coding 3
Mode extension : CM (complete main)
Format settings, Endianness : Big
Codec ID : A_AC3
Duration : 2h 7mn
Bit rate mode : Constant
Bit rate : 384 Kbps
Channel(s) : 2 channels
Channel positions : Front: L R
Sampling rate : 48.0 KHz
Bit depth : 16 bits
Compression mode : Lossy
Stream size : 349 MiB (9%)
Title : L2
Language : Russian
Default : No
Forced : No
Audio #3
ID : 4
Format : AC-3
Format/Info : Audio Coding 3
Mode extension : CM (complete main)
Format settings, Endianness : Big
Codec ID : A_AC3
Duration : 2h 7mn
Bit rate mode : Constant
Bit rate : 384 Kbps
Channel(s) : 6 channels
Channel positions : Front: L C R, Side: L R, LFE
Sampling rate : 48.0 KHz
Bit depth : 16 bits
Compression mode : Lossy
Stream size : 349 MiB (9%)
Language : English
Default : No
Forced : No
Text
ID : 5
Format : UTF-8
Codec ID : S_TEXT/UTF8
Codec ID/Info : UTF-8 Plain Text
Title : Full
Language : English
Default : No
Forced : No
Menu
00:00:00.000 : en:00:00:00.000
00:06:37.292 : en:00:06:37.292
00:13:24.583 : en:00:13:24.583
00:23:58.875 : en:00:23:58.875
00:33:57.042 : en:00:33:57.042
00:40:30.375 : en:00:40:30.375
00:50:12.583 : en:00:50:12.583
00:59:04.375 : en:00:59:04.375
01:04:50.500 : en:01:04:50.500
01:14:54.542 : en:01:14:54.542
01:19:41.292 : en:01:19:41.292
01:26:44.417 : en:01:26:44.417
01:32:30.333 : en:01:32:30.333
01:38:30.250 : en:01:38:30.250
01:45:03.875 : en:01:45:03.875
01:52:01.542 : en:01:52:01.542

Скриншоты




Информация от Страх


в следующий раз скрины вставляйте в виде бб кода к примеру
[img]прямая ссылка скрина[/img] и медиа инфо берите в свойствах
Как сделать скриншот с плеера и как узнать данные о видео файле


Последний раз редактировалось: no1 (2015-12-16 11:31), всего редактировалось 3 раз(а)

Создавать темы 15-Дек-2015 20:59

[Профиль]  [ЛС] 

axeman

Стаж: 4 года 10 месяцев

Сообщений: 380

Симпатии: 50

аффтор выбери другой ббкод

Создавать темы 16-Дек-2015 11:18

[Профиль]  [ЛС] 

Топик был перенесен из форума Фильмы за 2015 в форум Азиатские фильмы
mp1988

Создавать темы 17-Дек-2015 21:21

 
Показать сообщения:    
Ответить на тему

Текущее время: 23-Сен 03:35

Часовой пояс: UTC + 5



Вы не можете начинать темы
Вы не можете отвечать на сообщения
Вы не можете редактировать свои сообщения
Вы не можете удалять свои сообщения
Вы не можете голосовать в опросах
Вы не можете прикреплять файлы к сообщениям
Вы не можете скачивать файлы