Волна / Bølgen (Роар Утхауг | Roar Uthaug) [2015, боевик, триллер, драма,HDRip] MVO [Paradox & Omskbird records]

Ответить на тему
 

-ARTUR- ®

Стаж: 2 года 4 месяца

Сообщений: 50

Симпатии: 78

Волна / Bølgen-И содрогнется земля, и обрушатся горы, и поднимется цунами-- Страна: Норвегия
Жанр: боевик, триллер, драма
Год выпуска: 2015
Продолжительность: 01:44:00
Перевод: Профессиональный многоголосый [Paradox & Omskbird records]
Cубтитры: нет--Режиссер: Роар Утхауг--В ролях: Томас Бо Ларсен, Кристоффер Йонер, Эни Даль Торп, Фридтьов Сохейм, Йонас Хофф Офтебро, Артур Бернинг, Эдит Хогенруд-Сэнд, Элли Харбоа, Метта Агнета Хорн--Описание: Сигнал тревоги разносится над спящим городом. То, чего так боялись сейсмологи, сбылось - сильнейший тектонический сдвиг вызывает обрушение горного массива. Теперь гигантское смертоносное цунами движется прямо на людей. Опытный геолог Кристиан Айкорд оказывается в эпицентре самого страшного кошмара своей жизни.--Доп. информация:
Сценарий: Юн Коре Роке, Харальд Розенлёв-Эег
Продюсер: Арье Хейденстром, Мартин Сандлэнд, Jarle Bjørknes, ...
Оператор: Юн Кристиан Розенлунд
Композитор: Магнус Бейте
Художник: Лина Нордквист, Астрид Стрём Аструп, Эдриан Кюрлеа
Монтаж: Кристиан Зибенхерц
Бюджет: NOK 50 000 000--Премьера (мир): 16 августа 2015, ...
Премьера (РФ): 10 декабря 2015, «Вольга»--Зрители: Норвегия 801.2 тыс.--Качество: HDRip
Формат: AVI
Видео кодек: XviD
Аудио кодек: AC3
Видео данные: XviD, 1335 Кбит/с, 720x304, 24,000 fps
Аудио данные: AC3, 6 ch, 448 Кбит/с, 48,0 КГц
-

MediaInfo

Общее
Полное имя : G:\Volna.2015.P.HDRip.1400MB_Paradox_Omskbirdrecords.avi
Формат : AVI
Формат/Информация : Audio Video Interleave
Размер файла : 1,37 Гбайт
Продолжительность : 1 ч. 45 м.
Общий поток : 1866 Кбит/сек
Программа кодирования : VirtualDubMod 1.5.10.2 (build 2540/release)
Библиотека кодирования : VirtualDubMod build 2540/release
Видео
Идентификатор : 0
Формат : MPEG-4 Visual
Профиль формата : Advanced [email protected]
Параметр BVOP формата : 2
Параметр QPel формата : Нет
Параметр GMC формата : Без точки перехода
Параметр матрицы формата : Default (MPEG)
Идентификатор кодека : XVID
Идентификатор кодека/Подсказка : XviD
Продолжительность : 1 ч. 45 м.
Битрейт : 1335 Кбит/сек
Ширина : 720 пикселей
Высота : 304 пикселя
Соотношение сторон : 2,35:1
Частота кадров : 24,000 кадра/сек
Цветовое пространство : YUV
Субдискретизация насыщенности : 4:2:0
Битовая глубина : 8 бит
Тип развёртки : Прогрессивная
Метод сжатия : С потерями
Бит/(Пиксели*Кадры) : 0.254
Размер потока : 1006 Мбайт (72%)
Библиотека кодирования : XviD 1.2.1 (UTC 2008-12-04)
Аудио
Идентификатор : 1
Формат : AC-3
Формат/Информация : Audio Coding 3
Расширение режима : CM (complete main)
Параметр Endianness формата : Big
Идентификатор кодека : 2000
Продолжительность : 1 ч. 45 м.
Вид битрейта : Постоянный
Битрейт : 448 Кбит/сек
Каналы : 6 каналов
Расположение каналов : Front: L C R, Side: L R, LFE
Частота : 48,0 КГц
Битовая глубина : 16 бит
Метод сжатия : С потерями
Размер потока : 337 Мбайт (24%)
Выравнивание : Разделение по промежуткам

Скриншот c названием фильма

Скриншоты





Создавать темы 15-Дек-2015 23:17

[Профиль]  [ЛС] 
Показать сообщения:    
Ответить на тему

Текущее время: 17-Дек 01:45

Часовой пояс: UTC + 5



Вы не можете начинать темы
Вы не можете отвечать на сообщения
Вы не можете редактировать свои сообщения
Вы не можете удалять свои сообщения
Вы не можете голосовать в опросах
Вы не можете прикреплять файлы к сообщениям
Вы не можете скачивать файлы