ДУМ / DOOM (Анджей Бартковяк) [2005, Великобритания, Чехия, Германия, США, ужасы, фантастика, боевик, триллер, ..., HDRip] (Dub) (Original Rus)

Ответить на тему
 

Kraken ®

Стаж: 1 год 10 месяцев

Сообщений: 7

Симпатии: 9

ДУМ / DOOM
Страна: Великобритания, Чехия, Германия, США
Жанр: ужасы, фантастика, боевик, триллер, ...
Год выпуска: 2005
Продолжительность: 01:40:30
Перевод: Профессиональный (дублированный)
Cубтитры: нет
Оригинальная аудиодорожка: русский
Режиссер: Анджей Бартковяк
В ролях
Карл Урбан
Доби Опарей
Розамунд Пайк
Разаак Адоти
Ричард Брэйк
Аль Уивер
Декстер Флетчер
Брайан Стил
Бен Дэниелс
Дуэйн Джонсон
Роли дублировали:
Сергей Бурунов
Олег Куценко
Марианна Шульц
Пётр Иващенко
Борис Шувалов
...
Описание: 2145 год. После того, как из далёкой научной лаборатории Олдуай был получен сигнал о помощи, на место ― планету Марс ― прибывает отряд космического спецназа и обнаруживает разгромленную станцию. Вскоре выясняется, что на людей здесь охотятся полчища ужасных существ-мутантов…
Доп. информация: Фильм снят по мотивам серии компьютерных игр «Doom» (1993 — н. в., id Software). Качество видео: HDRip
Формат видео: AVIВидео: Video: Xvid 720x304 25fps 1502kbps [V: mpeg4 advanced simple profile, yuv420p, 720x304, 1502 kb/s]
Аудио: Audio: Dolby AC3 48000Hz 6ch 448kbps [A: ac3, 48000 Hz, 5.1, 448 kb/s]

MediaInfo

General
Complete name : E:\Фильмы\Dum.2005.XviD.DVDRip.avi
Format : AVI
Format/Info : Audio Video Interleave
File size : 1.38 GiB
Duration : 1h 40mn
Overall bit rate : 1 960 Kbps
Writing application : VirtualDubMod 1.5.10.1 (build 2439/release)
Writing library : VirtualDubMod build 2439/release
Video
ID : 0
Format : MPEG-4 Visual
Format profile : Advanced [email protected]
Format settings, BVOP : No
Format settings, QPel : No
Format settings, GMC : No warppoints
Format settings, Matrix : Custom
Codec ID : XVID
Codec ID/Hint : XviD
Duration : 1h 40mn
Bit rate : 1 503 Kbps
Width : 720 pixels
Height : 304 pixels
Display aspect ratio : 2.35:1
Frame rate : 25.000 fps
Color space : YUV
Chroma subsampling : 4:2:0
Bit depth : 8 bits
Scan type : Progressive
Compression mode : Lossy
Bits/(Pixel*Frame) : 0.275
Stream size : 1.05 GiB (77%)
Writing library : XviD 1.2.0.dev47 (UTC 2006-11-01)
Audio
ID : 1
Format : AC-3
Format/Info : Audio Coding 3
Mode extension : CM (complete main)
Format settings, Endianness : Big
Codec ID : 2000
Duration : 1h 40mn
Bit rate mode : Constant
Bit rate : 448 Kbps
Channel(s) : 6 channels
Channel positions : Front: L C R, Side: L R, LFE
Sampling rate : 48.0 KHz
Compression mode : Lossy
Stream size : 322 MiB (23%)
Alignment : Split accross interleaves
Interleave, duration : 40 ms (1.00 video frame)
Interleave, preload duration : 500 ms
Language : Russian

Скриншот c названием фильма

Скриншоты






Создавать темы 16-Дек-2015 19:49

[Профиль]  [ЛС] 

Miraziz

Стаж: 2 года 6 месяцев

Сообщений: 1

Симпатии: 1

Это разве ХД ??? куда смотрят модераторы

Создавать темы 12-Фев-2016 02:22

[Профиль]  [ЛС] 

Топик был перенесен из форума CamRip, DVDScr и т.п. в форум Фильмы до 2010
kat222000

Создавать темы 01-Апр-2016 23:16

 

Топик был перенесен из форума Фильмы до 2010 в форум Фильмы до 2010
ruhal

Создавать темы 02-Апр-2016 11:18

 
Показать сообщения:    
Ответить на тему

Текущее время: 17-Окт 23:25

Часовой пояс: UTC + 5



Вы не можете начинать темы
Вы не можете отвечать на сообщения
Вы не можете редактировать свои сообщения
Вы не можете удалять свои сообщения
Вы не можете голосовать в опросах
Вы не можете прикреплять файлы к сообщениям
Вы не можете скачивать файлы