Кости / Bones / Сезон: 11 / Серии: 1-22 из 22 (Харт Хэнсон) [2015, Драма, детектив, WEB-DLRip] (MVO : Релиз-группа: BaibaKo.tv) (Original)

Ответить на тему
 

igor1968 ®

Стаж: 5 лет 5 месяцев

Сообщений: 366

Симпатии: 197

Кости / Bones
Год выпуска: 2015
Страна:
Сезон: 11
Серии: 1-22 из 22
Жанр: Драма, детектив
Продолжительность: 00:45:00
Перевод: Профессиональный многоголосый закадровый
Доп. инфо о переводе: Релиз-группа:
Перевод 2: Не требуется
Русские субтитры: нет
Режиссёр: Харт Хэнсон
В ролях: Эмили Дешанель, Дэвид Бореаназ, Микаэла Конлин, Тамара Тэйлор, Томас Джозеф Тайн, Джон Фрэнсис Дэйли- Прошло шесть месяцев с того момента, как мы последний раз видели счастливую семью Бут-Бреннан. Они наслаждаются семейной идиллией в почти идеальном мире вместе со своей маленькой дочерью и новорождённым сыном,
но судьба уже приготовила для них очередную порцию испытаний и приключений...
С какими только преступлениями уже ни доводилось сталкиваться героям, но фантазия преступников безгранична, поэтому без работы ребята не останутся.-Ссылка на предыдущие и альтернативные раздачи: Сезон 10-Релиз-группа: BaibaKo.tv

Перевод: Наталья Черненко
Озвучка: Лира Грим, Светлана Доманова, Татьяна Оболевич, Артемий Мирон и Виталий Ткаченко
Монтаж: Виталий Ткаченко
Обложка: tvblog-

Список серий

Эпизод 01 The Loyalty in the Lie / Верность во лжи
Эпизод 02 The Brother in the Basement / Брат в подвале
Эпизод 03 The Donor in the Drink / Донор в водоёме
Эпизод 04 The Carpals in the Coy-Wolves / Кости в койволках
Эпизод 05 The Resurrection in the Remains / Воскресшие останки
Эпизод 06 The Senator in the Street Sweeper / Сенатор в мусоровозе
Эпизод 07 The Promise in the Palace / Обещание во дворце
Эпизод 08 High Treason in the Holiday Season / Государственная измена в сезон отпусков
Эпизод 09 The Cowboy in the Contest / Ковбой на состязании
Эпизод 10 The Doom in the Boom / Роковой взрыв
Эпизод 11 The Death in the Defense / Смерть адвоката
Эпизод 12 The Murder of the Meninist / Убийство андрониста
Эпизод 13 The Monster in the Closet / Монстр в шкафу
Эпизод 14 The Last Shot at a Second Chance / Последняя попытка второго шанса
Эпизод 15 Fight in the Fixer / Борьба посредника
Эпизод 16 The Strike in the Chord / Задеть за живое
Эпизод 17 The Secret in the Service / Секреты на службе
Эпизод 18 The Movie in the Making / Съёмки фильма
Эпизод 19 The Head in Abutment / Голова в опоре
Эпизод 20 The Stiff in the Cliff / Труп на скале
Эпизод 21 The Jewel in the Crown / Драгоценный камень в короне
Эпизод 22 The Nightmare in the Nightmare / Кошмар внутри кошмара/(Финал сезона)
-Добавлена 22 серия-Перекачайте торрент фаил-Финал сезона- -

Внимание! Раздача ведётся путём добавления новых серий

Внимание! Раздача ведётся путём добавления новых серий; при каждом добавлении создётся новый торрент. Чтобы начать докачку новой серии, пользователям необходимо сделать следующее:
1) остановить скачивание,
2) удалить старый торрент у себя из клиента (старые серии удалять не надо),
3) скачать новый торрент и запустить его у себя в клиенте вместо старого, при этом указать клиенту путь в старую папку куда и должно происходить скачивание новых серий.
Ваш клиент при этом должен произвести хеширование (проверку) старой папки (если не производит сам - помогите ему сделать это), и будет докачивать только те серии которых у вас ещё нет. Старые серии при этом не удаляются, а продолжают раздаваться!
Eсли вы уже удалили старые серии, то предотвратить повторную закачку старых серий можно, отжав галочку в соответсвующих местах при запуске нового торрента.
-Качество: WEB-DLRip
Формат: AVI
Видео кодек: XviD
Аудио кодек: MP3
Видео: XviD Advanced [email protected] 1500 Кбит/сек 720x400 (1.778) 23,976 кадра/сек
Аудио: MPEG-1 Audio layer 3 192 Кбит/сек 2 канала 48,0 КГц (rus)
Аудио 2: MPEG-1 Audio layer 3 192 Кбит/сек 2 канала 48,0 КГц (eng)

MediaInfo

General
Complete name : Кости Bones s11e01\Bones.s11e01.WEB-DLRip.XviD.Rus.Eng.BaibaKo.tv.avi
Format : AVI
Format/Info : Audio Video Interleave
File size : 621 MiB
Duration : 45mn 46s
Overall bit rate : 1 898 Kbps
Writing application : VirtualDubMod 1.5.10.2 (build 2542/release)
Writing library : VirtualDubMod build 2542/release
Video
ID : 0
Format : MPEG-4 Visual
Format profile : Advanced [email protected]
Format settings, BVOP : 2
Format settings, QPel : No
Format settings, GMC : No warppoints
Format settings, Matrix : Default (H.263)
Codec ID : XVID
Codec ID/Hint : XviD
Duration : 45mn 46s
Bit rate : 1 428 Kbps
Width : 720 pixels
Height : 400 pixels
Display aspect ratio : 16:9
Frame rate : 23.976 fps
Color space : YUV
Chroma subsampling : 4:2:0
Bit depth : 8 bits
Scan type : Progressive
Compression mode : Lossy
Bits/(Pixel*Frame) : 0.207
Stream size : 467 MiB (75%)
Writing library : XviD 65
Audio #1
ID : 1
Format : MPEG Audio
Format version : Version 1
Format profile : Layer 3
Mode : Joint stereo
Mode extension : MS Stereo
Codec ID : 55
Codec ID/Hint : MP3
Duration : 45mn 46s
Bit rate mode : Constant
Bit rate : 192 Kbps
Channel(s) : 2 channels
Sampling rate : 48.0 KHz
Compression mode : Lossy
Stream size : 62.9 MiB (10%)
Alignment : Aligned on interleaves
Writing library : LAME3.99r
Encoding settings : -m j -V 4 -q 3 -lowpass 18.6 -b 192
Audio #2
ID : 2
Format : MPEG Audio
Format version : Version 1
Format profile : Layer 3
Mode : Joint stereo
Mode extension : MS Stereo
Codec ID : 55
Codec ID/Hint : MP3
Duration : 45mn 46s
Bit rate mode : Constant
Bit rate : 192 Kbps
Channel(s) : 2 channels
Sampling rate : 48.0 KHz
Compression mode : Lossy
Stream size : 62.9 MiB (10%)
Alignment : Aligned on interleaves
Writing library : LAME3.99r
Encoding settings : -m j -V 4 -q 3 -lowpass 18.6 -b 192
- - - -


Последний раз редактировалось: igor1968 (2016-08-12 14:09), всего редактировалось 39 раз(а)

Создавать темы 16-Дек-2015 23:44

[Профиль]  [ЛС] 

Azikazik

Стаж: 4 года 3 месяца

Сообщений: 30

Круто, спасибо!!!

Создавать темы 17-Дек-2015 21:49

[Профиль]  [ЛС] 

igor1968 ®

Стаж: 5 лет 5 месяцев

Сообщений: 366

Симпатии: 197

Настройте торрент клиент как в gif

gif

Чем больше будете отдавать тем быстрее скачаете!


Последний раз редактировалось: igor1968 (2016-03-30 01:29), всего редактировалось 2 раз(а)

Создавать темы 25-Янв-2016 00:54

[Профиль]  [ЛС] 

igor1968 ®

Стаж: 5 лет 5 месяцев

Сообщений: 366

Симпатии: 197

Перекачайте торрент!

Создавать темы 29-Янв-2016 10:47

[Профиль]  [ЛС] 

Azikazik

Стаж: 4 года 3 месяца

Сообщений: 30

А где раздача, дай скорости!!!!!!!!!!!

Создавать темы 20-Май-2016 08:24

[Профиль]  [ЛС] 

Вадим123

Стаж: 4 года 4 месяца

Сообщений: 117

Симпатии: 7

19 серия - Proper - Что будет не так в серии?
p.s. Скачал, промотал - вроде все ОК.


Последний раз редактировалось: Вадим123 (2016-06-28 08:16), всего редактировалось 1 раз

Создавать темы 27-Июн-2016 21:30

[Профиль]  [ЛС] 

igor1968 ®

Стаж: 5 лет 5 месяцев

Сообщений: 366

Симпатии: 197

97705119 серия - Proper - Что будет не так в серии?
Proper - обозначение "золота" на Baibako.TV

Создавать темы 28-Июн-2016 06:03

[Профиль]  [ЛС] 
Показать сообщения:    
Ответить на тему

Текущее время: 21-Авг 15:22

Часовой пояс: UTC + 5



Вы не можете начинать темы
Вы не можете отвечать на сообщения
Вы не можете редактировать свои сообщения
Вы не можете удалять свои сообщения
Вы не можете голосовать в опросах
Вы не можете прикреплять файлы к сообщениям
Вы не можете скачивать файлы