Столкновение с бездной / Deep Impact (Мими Ледер) [1998, США, фантастика, боевик, триллер, драма, ..., BDRip] (Dub)

Ответить на тему
 

lucky999 ®

Стаж: 2 года 3 месяца

Сообщений: 32

Симпатии: 43

Столкновение с бездной / Deep Impact
Страна: США
Жанр: фантастика, боевик, триллер, драма, ...
Год выпуска: 1998
Продолжительность: 01:56:05
Перевод: Профессиональный (дублированный)
Режиссер: Мими Ледер
В ролях: Роберт Дювалл, Теа Леони, Элайджа Вуд, Ванесса Редгрейв, Морган Фриман, Максимилиан Шелл, Джеймс Кромуэлл, Рон Элдард, Джон Фавро, Александр Балуев, Лора Иннес, Лили Собески
Описание: Земле грозит неизбежное столкновением с кометой, что приведет к гибели всего живого. Президент США сообщает миру, что до «столкновения с бездной» остается год. На комету отправляют корабль «Мессия» который должен взорвать комету. Но от взрыва комета разлетается на две части. Ничто не может спасти человечество. Как поведут себя люди?…
Доп. информация:
сценарий: Брюс Джоэл Рубин, Майкл Толкин
продюсер: Дэвид Браун, Ричард Д. Занук, Джоан Брэдшоу, ...
оператор: Дитрих Ломанн
композитор: Джеймс Хорнер
художник: Лесли Дилли, Дэннис Брэдфорд, Гари Коско, ...
монтаж: Пол Цихоцки, Дэвид Розенблюм
премьера (мир): 7 мая 1998, ...
релиз на DVD: 18 декабря 2001, «Premier Digital», ...
IMDB рейтинг: 7.0/10
КиноПоиск рейтинг: 7.1/10
Качество видео: BDRip
Формат видео: AVI
Видео: DivX 5 688x288 25fps 2390kbps [V: mpeg4, yuv420p, 688x288, 2390 kb/s]
Аудио: Dolby AC3 48000Hz stereo 256kbps [A: ac3, 48000 Hz, stereo, 256 kb/s]

MediaInfo

General
Complete name : D:\Библиотеки\Kino\Фантастика\Столкновение с бездной\Столкновение с бездной.avi
Format : AVI
Format/Info : Audio Video Interleave
Format profile : OpenDML
File size : 2.16 GiB
Duration : 1h 56mn
Overall bit rate : 2 659 Kbps
Writing library : VirtualDub build 18160/release
Video
ID : 0
Format : MPEG-4 Visual
Format settings, BVOP : 1
Format settings, QPel : No
Format settings, GMC : No warppoints
Format settings, Matrix : Default (H.263)
Muxing mode : Packed bitstream
Codec ID : DX50
Codec ID/Hint : DivX 5
Duration : 1h 56mn
Bit rate : 2 391 Kbps
Width : 688 pixels
Height : 288 pixels
Display aspect ratio : 2.40:1
Frame rate : 25.000 fps
Color space : YUV
Chroma subsampling : 4:2:0
Bit depth : 8 bits
Scan type : Progressive
Compression mode : Lossy
Bits/(Pixel*Frame) : 0.483
Stream size : 1.94 GiB (90%)
Writing library : DivX 6.6.1.4
Audio
ID : 1
Format : AC-3
Format/Info : Audio Coding 3
Mode extension : CM (complete main)
Format settings, Endianness : Big
Codec ID : 2000
Duration : 1h 56mn
Bit rate mode : Constant
Bit rate : 256 Kbps
Channel(s) : 2 channels
Channel positions : Front: L R
Sampling rate : 48.0 KHz
Compression mode : Lossy
Stream size : 212 MiB (10%)
Alignment : Aligned on interleaves
Interleave, duration : 40 ms (1.00 video frame)
Interleave, preload duration : 512 ms

Скриншот c названием фильма

Скриншоты






Создавать темы 17-Дек-2015 02:36

[Профиль]  [ЛС] 
Показать сообщения:    
Ответить на тему

Текущее время: 17-Дек 15:09

Часовой пояс: UTC + 5



Вы не можете начинать темы
Вы не можете отвечать на сообщения
Вы не можете редактировать свои сообщения
Вы не можете удалять свои сообщения
Вы не можете голосовать в опросах
Вы не можете прикреплять файлы к сообщениям
Вы не можете скачивать файлы