Нозоми и Кимио / Nozo x Kimi [03 из 03] [RUS] [Без хардсаб] [OVA] [576p] [DVDRip] [школа, комедия, этти, фетиш]

Ответить на тему
 

maksimus_1712 ®

Стаж: 4 года 2 месяца

Сообщений: 122

Симпатии: 68

- Год: 2014
Жанр: школа, комедия, этти, фетиш
Страна: Япония
Количество серий: 3
Продолжительность: 25 мин.
Дата выпуска: c 18.08.2014 по 18.11.2014
Автор оригинала / Сценарист: Хонна Вако-Режиссер: Дзимбо Масато
Студия: -Озвучивание: Ancord
Перевод: FooBoo
Тайминг и работа со звуком: [YASHIRO]-Описание: Суге Кимио, самому обычному старшекласснику по воле неприятного случая приходится прятаться в шкафчике женской раздевалки. Почему? Он просто хотел прогнать оттуда своих друзей извращуг, а в итоге сам оказался внутри, да еще и в ту самую секунду, когда девушки шли переодеваться после физкультуры.
Его жизнь кончена? До конца старшей школы его заклеймят конченым ивращугой?
Но нет! Владелицей того самого шкафчика оказывается Кимио Нозоми, "очень необычная" девушка и она прикрывает Сугу, но в обмен на одно одолжение...
World Art-Качество: DVDRip
Формат видео: MP4, MKV
Видео: H264,1024x576,1265kbps,23.976fps
Аудио: ААС, 44100Hz, ~150kbps, 2ch-

MediaInfo

General
Complete name                  : [AniDub]_Nozo_x_Kimi_[OVA]_[01]_[DVDRrip576p]_[Ancord].mp4
Format                         : MPEG-4
Format profile                 : Base Media
Codec ID                       : isom
File size                      : 236 MiB
Duration                       : 23mn 10s
Overall bit rate mode          : Variable
Overall bit rate               : 1 424 Kbps
Writing application            : Lavf56.25.101
Video
ID                             : 1
Format                         : AVC
Format/Info                    : Advanced Video Codec
Format profile                 : [email protected]
Format settings, CABAC         : Yes
Format settings, ReFrames      : 4 frames
Codec ID                       : avc1
Codec ID/Info                  : Advanced Video Coding
Duration                       : 23mn 10s
Bit rate                       : 1 265 Kbps
Width                          : 1 024 pixels
Height                         : 576 pixels
Display aspect ratio           : 16:9
Frame rate mode                : Constant
Frame rate                     : 23.976 fps
Color space                    : YUV
Chroma subsampling             : 4:2:0
Bit depth                      : 8 bits
Scan type                      : Progressive
Bits/(Pixel*Frame)             : 0.089
Stream size                    : 210 MiB (89%)
Writing library                : x264 core 142
Encoding settings              : cabac=1 / ref=3 / deblock=1:0:0 / analyse=0x3:0x113 / me=hex / subme=7 / psy=1 / psy_rd=1.00:0.00 / mixed_ref=1 / me_range=16 / chroma_me=1 / trellis=1 / 8x8dct=1 / cqm=0 / deadzone=21,11 / fast_pskip=1 / chroma_qp_offset=-2 / threads=4 / lookahead_threads=1 / sliced_threads=0 / nr=0 / decimate=1 / interlaced=0 / bluray_compat=0 / constrained_intra=0 / bframes=3 / b_pyramid=2 / b_adapt=1 / b_bias=0 / direct=1 / weightb=1 / open_gop=0 / weightp=2 / keyint=24 / keyint_min=2 / scenecut=40 / intra_refresh=0 / rc_lookahead=24 / rc=2pass / mbtree=1 / bitrate=1265 / ratetol=1.0 / qcomp=0.60 / qpmin=0 / qpmax=69 / qpstep=4 / cplxblur=20.0 / qblur=0.5 / ip_ratio=1.40 / aq=1:1.00
Audio
ID                             : 2
Format                         : AAC
Format/Info                    : Advanced Audio Codec
Format profile                 : LC
Codec ID                       : 40
Duration                       : 23mn 10s
Bit rate mode                  : Variable
Bit rate                       : 151 Kbps
Maximum bit rate               : 192 Kbps
Channel(s)                     : 2 channels
Channel positions              : Front: L R
Sampling rate                  : 44.1 KHz
Compression mode               : Lossy
Stream size                    : 25.0 MiB (11%)

Скриншоты

Создавать темы 17-Дек-2015 13:59

[Профиль]  [ЛС] 

SNIL

Стаж: 5 лет 9 месяцев

Сообщений: 2624

Симпатии: 341

Мангу пролистал, так се!

Создавать темы 17-Дек-2015 19:39

[Профиль]  [ЛС] 
Показать сообщения:    
Ответить на тему

Текущее время: 22-Окт 18:45

Часовой пояс: UTC + 5



Вы не можете начинать темы
Вы не можете отвечать на сообщения
Вы не можете редактировать свои сообщения
Вы не можете удалять свои сообщения
Вы не можете голосовать в опросах
Вы не можете прикреплять файлы к сообщениям
Вы не можете скачивать файлы