Жертвуя пешкой / Pawn Sacrifice (Эдвард Цвик) [2014, США, драма, биография, BDRip] (Dub)

Ответить на тему
 

Fumixod ®

Стаж: 8 лет 1 месяц

Сообщений: 25

Симпатии: 1

Жертвуя пешкой / Pawn Sacrifice
Страна: США
Жанр: драма, биография
Год выпуска: 2014
Продолжительность: 01:55:43
Перевод: Профессиональный (дублированный)
Cубтитры: нет
Режиссер: Эдвард Цвик
В ролях: Тоби Магуайр, Лив Шрайбер, Робин Вайгерт, Лили Рэйб, Питер Сарсгаард, Майкл Стулбарг, Софи Нелисс, Эвелин Брошу, Шеймас Дэви-Фицпатрик, Лидия Зедел
Описание: В разгар Холодной войны внимание всей планеты приковано к «схватке столетия» — матчу за звание чемпиона мира по шахматам в Рейкьявике. Бой между абсолютным чемпионом Борисом Спасским и по-настоящему одержимым игрой Бобби Фишером превращается в борьбу за интеллектуальное превосходство двух сверхдержав. Права на проигрыш нет. Вокруг поединка разражается мировой скандал. Спасскому приходится справляться с беспрецедентным давлением. Гениальный разум Фишера, взвинченный паранойей, начинает охватывать безумие.
Качество видео: BDRip
Формат видео: AVI
Видео: 1406 Кбит/сек, 720x304 (2,35:1), 23,976, MPEG-4 Visual (XviD)
Аудио: 384 Кбит/сек, 48,0 КГц, AC-3

MediaInfo

Общее
Полное имя : R:\video 2015\Zhertvuja.Peshkoi.2015.D.HDRip.1.46GB.avi
Формат : AVI
Формат/Информация : Audio Video Interleave
Размер файла : 1,45 Гбайт
Продолжительность : 1 ч. 55 м.
Общий поток : 1799 Кбит/сек
Программа кодирования : VirtualDubMod 1.5.10.2 (build 2540/release)
Библиотека кодирования : VirtualDubMod build 2540/release
Видео
Идентификатор : 0
Формат : MPEG-4 Visual
Профиль формата : Advanced [email protected]
Параметр BVOP формата : 2
Параметр QPel формата : Нет
Параметр GMC формата : Без точки перехода
Параметр матрицы формата : Default (MPEG)
Идентификатор кодека : XVID
Идентификатор кодека/Подсказка : XviD
Продолжительность : 1 ч. 55 м.
Битрейт : 1406 Кбит/сек
Ширина : 720 пикселей
Высота : 304 пикселя
Соотношение сторон : 2,35:1
Частота кадров : 23,976 (24000/1001) кадра/сек
Цветовое пространство : YUV
Субдискретизация насыщенности : 4:2:0
Битовая глубина : 8 бит
Тип развёртки : Прогрессивная
Метод сжатия : С потерями
Бит/(Пиксели*Кадры) : 0.268
Размер потока : 1,14 Гбайт (78%)
Библиотека кодирования : XviD 1.2.1 (UTC 2008-12-04)
Аудио
Идентификатор : 1
Формат : AC-3
Формат/Информация : Audio Coding 3
Расширение режима : CM (complete main)
Параметр Endianness формата : Big
Идентификатор кодека : 2000
Продолжительность : 1 ч. 55 м.
Вид битрейта : Постоянный
Битрейт : 384 Кбит/сек
Каналы : 6 каналов
Расположение каналов : Front: L C R, Side: L R, LFE
Частота : 48,0 КГц
Частота кадров : 31,250 кадров/сек (1536 spf)
Метод сжатия : С потерями
Размер потока : 318 Мбайт (21%)
Выравнивание : Разделение по промежуткам
Продолжительность промежутка : 42 мс. (1,00 видеокадр)
Время предзагрузки промежутка : 500 мс.

Скриншоты




Создавать темы 17-Дек-2015 16:22

[Профиль]  [ЛС] 

WithoutChance

Стаж: 3 года 10 месяцев

Сообщений: 8

Симпатии: 1

Встаньте на раздачу пожалуйста ребят

Создавать темы 18-Дек-2015 15:42

[Профиль]  [ЛС] 
Показать сообщения:    
Ответить на тему

Текущее время: 17-Ноя 22:46

Часовой пояс: UTC + 5



Вы не можете начинать темы
Вы не можете отвечать на сообщения
Вы не можете редактировать свои сообщения
Вы не можете удалять свои сообщения
Вы не можете голосовать в опросах
Вы не можете прикреплять файлы к сообщениям
Вы не можете скачивать файлы