Вымирание / Extinction (Мигель Анхель Вивас / Miguel Angel Vivas) [2015, Испания, США, Венгрия, Франция, ужасы, фантастика, драма, BDRip] (MVO : [Лицензия iTunes]) (Sub Rus + Original Eng)

Ответить на тему
 

Star Line ®

Стаж: 4 года

Сообщений: 136

Симпатии: 26

Вымирание / Extinction
Страна: Испания, США, Венгрия, Франция
Жанр: ужасы, фантастика, драма
Год выпуска: 2015
Продолжительность: 01:52:59
Перевод: Профессиональный (многоголосый закадровый) [Лицензия iTunes]
Cубтитры: русский, английский и украинский
Оригинальная аудиодорожка: английский
Режиссер: Мигель Анхель Вивас / Miguel Angel Vivas
В ролях: Мэттью Фокс, Джеффри Донован, Куинн Маккоулган, Валерия Веро, Клара Лаго, Eduardo Fedriani, Мэтт Девере, Алекс Хафнер, Джереми Вилер, Katharine Bubbear, Daniel Bargueno, Орсоля Бене
Описание: После нескольких сотен тысяч лет эволюции и превосходства, люди были почти стерты с лица Земли. В течение всего лишь нескольких дней инфекция превратила их в диких существ без интеллекта, они стали злыми и безжалостными. Через семь лет после этого, мы находим небольшой городок - Harmony, покрытый многолетними снегами. Двое мужчин, давние друзья Патрик и Джек, и дочь Джека, Лу, - единственные оставшиеся в живых. Тем не менее, они не общаются или даже не признают друг друга. Что-то ужасное произошло между ними и глубокая неумолимая ненависть прекратила их дружбу давным-давно.
Качество видео: BDRip
Формат видео: MKV
Видео: Video: MPEG4 Video (H264) 1108x464 24fps [V: Extinction (2015) (New-Team) (Rip by Stalker oK) (h264 high L4.1, yuv420p, 1108x464) [default]]
Аудио: Audio: Dolby AC3 48000Hz 6ch 384kbps [A: Russian [rus] (ac3, 48000 Hz, 5.1, 384 kb/s) [default]]
Аудио 2: Audio: Dolby AC3 48000Hz 6ch 448kbps [A: English [eng] (ac3, 48000 Hz, 5.1, 448 kb/s)]

MediaInfo

Format : Matroska
Format version : Version 4 / Version 2
File size : 2.13 GiB
Duration : 1h 52mn
Overall bit rate : 2 699 Kbps
Movie name : Extinction (2015) (New-Team) (Rip by Stalker oK)
Encoded date : UTC 2015-12-07 18:59:24
Writing application : mkvmerge v7.9.0 ('Birds') 64bit
Writing library : libebml v1.3.1 + libmatroska v1.4.2
_STATISTICS_WRITING_APP : mkvmerge v7.9.0 ('Birds') 64bit
_STATISTICS_WRITING_DATE_UTC : 2015-12-07 18:59:24
_STATISTICS_TAGS : BPS DURATION NUMBER_OF_FRAMES NUMBER_OF_BYTES
DURATION : 01:44:38.958000000
NUMBER_OF_FRAMES : 825
NUMBER_OF_BYTES : 32641
Video
ID : 1
Format : AVC
Format/Info : Advanced Video Codec
Format profile : High@L4.1
Format settings, CABAC : Yes
Format settings, ReFrames : 13 frames
Codec ID : V_MPEG4/ISO/AVC
Duration : 1h 52mn
Bit rate : 1 868 Kbps
Width : 1 108 pixels
Height : 464 pixels
Display aspect ratio : 2.40:1
Frame rate mode : Constant
Frame rate : 24.000 fps
Color space : YUV
Chroma subsampling : 4:2:0
Bit depth : 8 bits
Scan type : Progressive
Bits/(Pixel*Frame) : 0.151
Stream size : 1.43 GiB (67%)
Title : Extinction (2015) (New-Team) (Rip by Stalker oK)
Writing library : x264 core 146 r2538kMod 121396c
Encoding settings : cabac=1 / ref=13 / deblock=1:-3:-3 / analyse=0x3:0x133 / me=umh / subme=11 / psy=1 / fade_compensate=0.00 / psy_rd=1.00:0.10 / mixed_ref=1 / me_range=48 / chroma_me=1 / trellis=2 / 8x8dct=1 / cqm=0 / deadzone=21,11 / fast_pskip=0 / chroma_qp_offset=-3 / threads=12 / lookahead_threads=3 / sliced_threads=0 / nr=0 / decimate=0 / interlaced=0 / bluray_compat=0 / constrained_intra=0 / fgo=0 / bframes=14 / b_pyramid=2 / b_adapt=2 / b_bias=0 / direct=3 / weightb=1 / open_gop=0 / weightp=2 / keyint=240 / keyint_min=24 / scenecut=40 / intra_refresh=0 / rc_lookahead=60 / rc=2pass / mbtree=0 / bitrate=1868 / ratetol=1.0 / qcomp=0.70 / qpmin=0 / qpmax=69 / qpstep=4 / cplxblur=20.0 / qblur=0.5 / vbv_maxrate=50000 / vbv_bufsize=62500 / nal_hrd=none / filler=0 / ip_ratio=1.40 / pb_ratio=1.30 / aq=3:0.85
Default : Yes
Forced : No
DURATION : 01:52:59.042000000
NUMBER_OF_FRAMES : 162697
NUMBER_OF_BYTES : 1580196701
_STATISTICS_WRITING_APP : mkvmerge v7.9.0 ('Birds') 64bit
_STATISTICS_WRITING_DATE_UTC : 2015-12-07 18:59:24
_STATISTICS_TAGS : BPS DURATION NUMBER_OF_FRAMES NUMBER_OF_BYTES
Audio #1
ID : 2
Format : AC-3
Format/Info : Audio Coding 3
Mode extension : CM (complete main)
Format settings, Endianness : Big
Codec ID : A_AC3
Duration : 1h 52mn
Bit rate mode : Constant
Bit rate : 384 Kbps
Channel(s) : 6 channels
Channel positions : Front: L C R, Side: L R, LFE
Sampling rate : 48.0 KHz
Compression mode : Lossy
Stream size : 310 MiB (14%)
Language : Russian
Default : Yes
Forced : No
Audio #2
ID : 3
Format : AC-3
Format/Info : Audio Coding 3
Mode extension : CM (complete main)
Format settings, Endianness : Big
Codec ID : A_AC3
Duration : 1h 52mn
Bit rate mode : Constant
Bit rate : 448 Kbps
Channel(s) : 6 channels
Channel positions : Front: L C R, Side: L R, LFE
Sampling rate : 48.0 KHz
Compression mode : Lossy
Stream size : 362 MiB (17%)
Language : English
Default : No
Forced : No
Text #1
ID : 4
Format : UTF-8
Codec ID : S_TEXT/UTF8
Codec ID/Info : UTF-8 Plain Text
Language : Russian
Default : No
Forced : No
Text #2
ID : 5
Format : UTF-8
Codec ID : S_TEXT/UTF8
Codec ID/Info : UTF-8 Plain Text
Language : Ukrainian
Default : No
Forced : No
Text #3
ID : 6
Format : UTF-8
Codec ID : S_TEXT/UTF8
Codec ID/Info : UTF-8 Plain Text
Language : English
Default : No
Forced : No
Menu
00:00:00.000 : en:Chapter 1
00:10:15.291 : en:Chapter 2
00:19:38.541 : en:Chapter 3
00:29:22.500 : en:Chapter 4
00:36:58.375 : en:Chapter 5
00:44:57.500 : en:Chapter 6
00:54:09.750 : en:Chapter 7
01:01:48.541 : en:Chapter 8
01:12:16.000 : en:Chapter 9
01:21:38.000 : en:Chapter 10
01:29:42.125 : en:Chapter 11
01:38:28.500 : en:Chapter 12
01:46:31.000 : en:Chapter 13

Скриншоты





Последний раз редактировалось: Star Line (2015-12-17 20:51), всего редактировалось 1 раз

Создавать темы 17-Дек-2015 17:15

[Профиль]  [ЛС] 

Топик был перенесен из форума Фильмы за 2015 в форум HD-AVC
Каротажник

Создавать темы 17-Дек-2015 20:50

 

Star Line ®

Стаж: 4 года

Сообщений: 136

Симпатии: 26

Сегодня утром взорвался трансформатор тока. Обещают ближе к вечеру будет свет

Создавать темы 18-Дек-2015 08:59

[Профиль]  [ЛС] 

ulkiora5

Стаж: 4 года 4 месяца

Сообщений: 53

Симпатии: 25

Отличный фильм, чем то схож с Я Легенда.

Создавать темы 18-Дек-2015 10:40

[Профиль]  [ЛС] 

Star Line ®

Стаж: 4 года

Сообщений: 136

Симпатии: 26

ulkiora5, Не знаю насчет отличного. Мне не так уж понравился фильм. На один раз можно. Жду света когда дадут

Создавать темы 18-Дек-2015 12:11

[Профиль]  [ЛС] 

ulkiora5

Стаж: 4 года 4 месяца

Сообщений: 53

Симпатии: 25

Star Line, может я слишком много мусора повидал в этом году, что мне понравилось, а вам неочень

Создавать темы 18-Дек-2015 17:00

[Профиль]  [ЛС] 

Star Line ®

Стаж: 4 года

Сообщений: 136

Симпатии: 26

ulkiora5, В этом году слишком много мусора было, в прочем так было и раньше

Создавать темы 18-Дек-2015 17:35

[Профиль]  [ЛС] 
Показать сообщения:    
Ответить на тему

Текущее время: 20-Окт 08:14

Часовой пояс: UTC + 5



Вы не можете начинать темы
Вы не можете отвечать на сообщения
Вы не можете редактировать свои сообщения
Вы не можете удалять свои сообщения
Вы не можете голосовать в опросах
Вы не можете прикреплять файлы к сообщениям
Вы не можете скачивать файлы