База Куантико / Quantico / Сезон: 1 / Серии: 1-22 из 22 (Марк Манден) [2015, Драма, WEB-DLRip] (MVO : BaiBaKo)

Ответить на тему
 

Sunnat1999 ®

Стаж: 4 года 9 месяцев

Сообщений: 756

Симпатии: 416

База Куантико / QuanticoСезон-1 Серии: 1-22 из 22--
Год выпуска: 2015
Страна: США
Жанр: Драма
Продолжительность: ~ 00:45:00 серия
Перевод: Профессиональный многоголосый [BaiBaKo]-Режиссёр: Марк Манден-В ролях: Приянка Чопра, Онжаню Эллис, Джейк МакЛафлин, Ясмин Эл Массри, Джоанна Э. Брэдди, Тейт Эллингтон, Грэхэм Роджерс, Анабель Акоста, Анна Хайа, Диллон Мэтьюз-Описание: Шесть совершенно разных новобранцев поступают на стажировку в ФБР на базу Куантико в штате Вирджиния. Базой руководит Миранда Шоу, первая женщина на высшей должности в ФБР. Миранда объединяется со своим бывшим партнером, Лиамом О`Коннором, который ныне работает советником, чтобы отобрать лучших новобранцев в агенты. Тем не менее в будущем один из новобранцев будет подозреваемым в планировании крупнейшего с 11 сентября террористического акта по Нью-Йорку.-Доп. информация:
 

-Качество: WEB-DLRip
Формат: AVI
Видео кодек: XviD
Аудио кодек: AC3
Видео: XviD, ~ 1500 Кбит/с, 720x400
Аудио: Русский (AC3, 6 ch, 384 Кбит/с)
-ВНИМАНИЕ! РАЗДАЧА ВЕДЁТСЯ ПУТЁМ ДОБАВЛЕНИЯ НОВЫХ СЕРИЙ!
ДОБАВЛЕНА 22 СЕРИЯ, ОБНОВИТЕ ТОРРЕНТ ПОЖАЛУЙСТА!

Как обновить торрент

Когда раздача ведётся путём добавления новых серий, при каждом добавлении создётся новый торрент. Чтобы начать докачку новой серии, пользователям необходимо сделать следующее:
(1) остановить скачивание,
(2) удалить старый торрент у себя из клиента (старые серии удалять не надо),
(3) скачать новый торрент и запустить его у себя в клиенте вместо старого, при этом указать клиенту путь в старую папку, куда и должно происходить скачивание новых серий.
Ваш клиент при этом должен произвести хеширование (проверку) старой папки (если не производит сам - помогите ему сделать это), и будет докачивать только те серии, которых у вас ещё нет. Старые серии при этом не удаляются, а продолжают раздаваться!
Eсли вы уже удалили старые серии, то предотвратить повторную закачку старых серий можно, отжав галочку в соответсвующих местах при запуске нового торрента. По возможности, желательно не удалять старые серии как можно дольше, чтобы релизёр не столько продолжал раздавать старые серии, а смог сконцентрироваться на новых.

Название серий

1.Беги
2.Америка
3.Прикрытие
4.Убивай
5.Обнаружение
6.Бог
7.Уходите
8.Конец
9.Виновна
10.Куантико
11.Внутри
12.Алекс
13.Ясно
14.Ответ
15.Очередь
16.Зацепка
17.Забота
18.Cкоро

MediaInfo

General
Complete name : \Quantico.s01.WDEBDLRip.bbk\Quantico.s01.e01.WDEBDLRip.bbk.avi
Format : AVI
Format/Info : Audio Video Interleave
File size : 600 MiB
Duration : 43mn 0s
Overall bit rate : 1 950 Kbps
Writing application : VirtualDubMod 1.5.10.3 | www.virtualdub-fr.org || (build 2550/release)
Writing library : VirtualDubMod build 2550/release
Video
ID : 0
Format : MPEG-4 Visual
Format profile : Advanced [email protected]
Format settings, BVOP : 2
Format settings, QPel : No
Format settings, GMC : No warppoints
Format settings, Matrix : Default (MPEG)
Codec ID : XVID
Codec ID/Hint : XviD
Duration : 43mn 0s
Bit rate : 1 557 Kbps
Width : 720 pixels
Height : 400 pixels
Display aspect ratio : 16:9
Frame rate : 23.976 fps
Color space : YUV
Chroma subsampling : 4:2:0
Bit depth : 8 bits
Scan type : Progressive
Compression mode : Lossy
Bits/(Pixel*Frame) : 0.225
Stream size : 479 MiB (80%)
Writing library : XviD 1.2.1 (UTC 2008-12-04)
Audio
ID : 1
Format : AC-3
Format/Info : Audio Coding 3
Mode extension : CM (complete main)
Format settings, Endianness : Big
Codec ID : 2000
Duration : 43mn 0s
Bit rate mode : Constant
Bit rate : 384 Kbps
Channel(s) : 6 channels
Channel positions : Front: L C R, Side: L R, LFE
Sampling rate : 48.0 KHz
Compression mode : Lossy
Stream size : 118 MiB (20%)
Alignment : Split accross interleaves
Interleave, duration : 42 ms (1.00 video frame)
Interleave, preload duratio : 500 ms
Скриншоты --


Последний раз редактировалось: Sunnat1999 (2016-06-21 12:42), всего редактировалось 20 раз(а)

Создавать темы 17-Дек-2015 17:52

[Профиль]  [ЛС] 

Sunnat1999 ®

Стаж: 4 года 9 месяцев

Сообщений: 756

Симпатии: 416

ДОБАВЛЕНА 11 СЕРИЯ, ОБНОВИТЕ ТОРРЕНТ ПОЖАЛУЙСТА!

Создавать темы 17-Дек-2015 17:52

[Профиль]  [ЛС] 

Sunnat1999 ®

Стаж: 4 года 9 месяцев

Сообщений: 756

Симпатии: 416

ДОБАВЛЕНА 12 СЕРИЯ, ОБНОВИТЕ ТОРРЕНТ ПОЖАЛУЙСТА!

Создавать темы 11-Мар-2016 17:55

[Профиль]  [ЛС] 

Sunnat1999 ®

Стаж: 4 года 9 месяцев

Сообщений: 756

Симпатии: 416

ДОБАВЛЕНА 13 СЕРИЯ, ОБНОВИТЕ ТОРРЕНТ ПОЖАЛУЙСТА!

Создавать темы 16-Мар-2016 14:06

[Профиль]  [ЛС] 

Sunnat1999 ®

Стаж: 4 года 9 месяцев

Сообщений: 756

Симпатии: 416

ДОБАВЛЕНА 14 СЕРИЯ, ОБНОВИТЕ ТОРРЕНТ ПОЖАЛУЙСТА!

Создавать темы 24-Мар-2016 17:42

[Профиль]  [ЛС] 

Sunnat1999 ®

Стаж: 4 года 9 месяцев

Сообщений: 756

Симпатии: 416

ДОБАВЛЕНА 15 СЕРИЯ, ОБНОВИТЕ ТОРРЕНТ ПОЖАЛУЙСТА!

Создавать темы 29-Мар-2016 15:43

[Профиль]  [ЛС] 

Sunnat1999 ®

Стаж: 4 года 9 месяцев

Сообщений: 756

Симпатии: 416

ДОБАВЛЕНА 16 СЕРИЯ, ОБНОВИТЕ ТОРРЕНТ ПОЖАЛУЙСТА!

Создавать темы 09-Апр-2016 10:00

[Профиль]  [ЛС] 

Sunnat1999 ®

Стаж: 4 года 9 месяцев

Сообщений: 756

Симпатии: 416

ДОБАВЛЕНА 17 СЕРИЯ, ОБНОВИТЕ ТОРРЕНТ ПОЖАЛУЙСТА!

Создавать темы 13-Апр-2016 06:14

[Профиль]  [ЛС] 

Sunnat1999 ®

Стаж: 4 года 9 месяцев

Сообщений: 756

Симпатии: 416

ДОБАВЛЕНА 18 СЕРИЯ, ОБНОВИТЕ ТОРРЕНТ ПОЖАЛУЙСТА!

Создавать темы 22-Апр-2016 10:09

[Профиль]  [ЛС] 

Sunnat1999 ®

Стаж: 4 года 9 месяцев

Сообщений: 756

Симпатии: 416

ДОБАВЛЕНА 19-20 СЕРИЯ, ОБНОВИТЕ ТОРРЕНТ ПОЖАЛУЙСТА!

Создавать темы 03-Май-2016 14:31

[Профиль]  [ЛС] 

Sunnat1999 ®

Стаж: 4 года 9 месяцев

Сообщений: 756

Симпатии: 416

ДОБАВЛЕНА 21 СЕРИЯ, ОБНОВИТЕ ТОРРЕНТ ПОЖАЛУЙСТА!

Создавать темы 11-Май-2016 16:45

[Профиль]  [ЛС] 

Sunnat1999 ®

Стаж: 4 года 9 месяцев

Сообщений: 756

Симпатии: 416

ДОБАВЛЕНА 22 СЕРИЯ, ОБНОВИТЕ ТОРРЕНТ ПОЖАЛУЙСТА! --КОНЕЦ СЕЗОНА!

Создавать темы 21-Май-2016 08:49

[Профиль]  [ЛС] 
Показать сообщения:    
Ответить на тему

Текущее время: 14-Дек 05:25

Часовой пояс: UTC + 5



Вы не можете начинать темы
Вы не можете отвечать на сообщения
Вы не можете редактировать свои сообщения
Вы не можете удалять свои сообщения
Вы не можете голосовать в опросах
Вы не можете прикреплять файлы к сообщениям
Вы не можете скачивать файлы