Прогулка / The Walk (Роберт Земекис / Robert Zemeckis) [2015, США / Sony Pictures Entertainment (SPE), триллер, драма, приключения, биография, WEB-DLRip] (Лицензия) iTunes (Original Rus)

Ответить на тему
 

Star Line ®

Стаж: 4 года 2 месяца

Сообщений: 136

Симпатии: 26

Прогулка / The Walk
Страна: США / Sony Pictures Entertainment (SPE)
Жанр: триллер, драма, приключения, биография
Год выпуска: 2015
Продолжительность: 02:03:09
Перевод: Профессиональный (дублированный) (Лицензия) iTunes Russia
Cубтитры: нет
Оригинальная аудиодорожка: русский
Режиссер: Роберт Земекис / Robert Zemeckis
В ролях: Джозеф Гордон-Левитт, Бен Кингсли, Стив Валентайн, Шарлотта Ле Бон, Джеймс Бэдж Дэйл, Бен Шварц, Бенедикт Сэмюэл, Мизинга Мвинга, Дэниэл Аррош, Джейсон Делайн, Серджо Ди Зио, Даррел Ли-Изард, Кент МакКвейд, Гийом Байяржон, Эмили Леклерк, Марк Траффорд, Инка Малович, Лукас Рамасьер, Мартин Лефевр, Филипп Бертран
Описание: Вы боитесь высоты? А можете представить себя идущим по натянутому канату на высоте более 400м без всякой страховки? Потоки ветра обдувают вас, а внизу — город и тысячи взволнованных взглядов, устремленных вверх.
История о том, как французский канатоходец Филипп Пети отважился совершить легендарный трюк — пройти без страховки по канату, натянутому между небоскребами в Нью-Йорке.
Качество видео: WEB-DLRip
Формат видео: AVI
Видео: Xvid 704x288 23.976fps 1302kbps [V: mpeg4 advanced simple profile, yuv420p, 704x288, 1302 kb/s]
Аудио: Audio: Dolby AC3 48000Hz 6ch 384kbps [A: ac3, 48000 Hz, 5.1, 384 kb/s]

MediaInfo

Video
ID : 0
Format : MPEG-4 Visual
Format profile : Advanced [email protected]
Format settings, BVOP : 1
Format settings, QPel : No
Format settings, GMC : No warppoints
Format settings, Matrix : Custom
Codec ID : XVID
Codec ID/Hint : XviD
Duration : 2h 3mn
Bit rate : 1 302 Kbps
Width : 704 pixels
Height : 288 pixels
Display aspect ratio : 2.40:1
Frame rate : 23.976 fps
Color space : YUV
Chroma subsampling : 4:2:0
Bit depth : 8 bits
Scan type : Progressive
Compression mode : Lossy
Bits/(Pixel*Frame) : 0.268
Stream size : 1.12 GiB (77%)
Writing library : XviD 67
Audio
ID : 1
Format : AC-3
Format/Info : Audio Coding 3
Mode extension : CM (complete main)
Format settings, Endianness : Big
Codec ID : 2000
Duration : 2h 3mn
Bit rate mode : Constant
Bit rate : 384 Kbps
Channel(s) : 6 channels
Channel positions : Front: L C R, Side: L R, LFE
Sampling rate : 48.0 KHz
Compression mode : Lossy
Stream size : 338 MiB (23%)
Alignment : Split accross interleaves
Interleave, duration : 42 ms (1.00 video frame)
Interleave, preload duration : 500 ms

Скриншоты




Создавать темы 18-Дек-2015 12:37

[Профиль]  [ЛС] 

Star Line ®

Стаж: 4 года 2 месяца

Сообщений: 136

Симпатии: 26

Уважаемые пользователи! Сегодня ближе к вечеру обещали дать свет. Трансформатор тока сгорел

Создавать темы 18-Дек-2015 16:05

[Профиль]  [ЛС] 

totsamiy

Стаж: 5 лет 6 месяцев

Сообщений: 145

Симпатии: 22

а тут есть перевод на французский?

Создавать темы 18-Дек-2015 21:33

[Профиль]  [ЛС] 

Star Line ®

Стаж: 4 года 2 месяца

Сообщений: 136

Симпатии: 26

totsamiy, Тут только одна звуковая дорожка. Русский

Создавать темы 18-Дек-2015 21:45

[Профиль]  [ЛС] 

Жавлон

Стаж: 4 года 6 месяцев

Сообщений: 8

Хороший фильм!

Создавать темы 19-Дек-2015 02:34

[Профиль]  [ЛС] 

totsamiy

Стаж: 5 лет 6 месяцев

Сообщений: 145

Симпатии: 22

962800totsamiy, Тут только одна звуковая дорожка. Русский
неужели я так сложно выразился? ai .....
попробую по другому...
уважаемый релизер, спасибо за релиз, и не могли бы вы подсказать, здесь, имеется ли перевод на русский, когда герои фильма общаются на французском?

Создавать темы 19-Дек-2015 08:33

[Профиль]  [ЛС] 

Star Line ®

Стаж: 4 года 2 месяца

Сообщений: 136

Симпатии: 26

totsamiy, Уважаемый пользователь трекера. Скачайте и узнайте более детальную информацию о данном видео файле. Я еще не успел посмотреть. Файл скачан с http://rutracker.org/forum/viewtopic.php?t=5134676 надеюсь я выразился ясно и четко?

Создавать темы 19-Дек-2015 09:37

[Профиль]  [ЛС] 

totsamiy

Стаж: 5 лет 6 месяцев

Сообщений: 145

Симпатии: 22

субтитры на французскую речь

Создавать темы 19-Дек-2015 14:38

[Профиль]  [ЛС] 

Star Line ®

Стаж: 4 года 2 месяца

Сообщений: 136

Симпатии: 26

totsamiy, Скачайте и смотрите на счастье с удовольствием. Не забываем и о других кто качает и кто будет закачивать.

Создавать темы 19-Дек-2015 14:48

[Профиль]  [ЛС] 

AArtem

Стаж: 2 года 2 месяца

Сообщений: 8

Симпатии: 9

962836totsamiy, Уважаемый пользователь трекера. Скачайте и узнайте более детальную информацию о данном видео файле. Я еще не успел посмотреть. Файл скачан с http://rutracker.org/forum/viewtopic.php?t=5134676 надеюсь я выразился ясно и четко?
а зачем переименовали оригинальное название файла с рутрекера?))

Создавать темы 19-Дек-2015 16:42

[Профиль]  [ЛС] 

Star Line ®

Стаж: 4 года 2 месяца

Сообщений: 136

Симпатии: 26

AArtem, Так они тоже не являются оригинальными

Создавать темы 19-Дек-2015 20:21

[Профиль]  [ЛС] 

Star Line ®

Стаж: 4 года 2 месяца

Сообщений: 136

Симпатии: 26

Спасибо что выручили с раздачей. Я был на работе и домой только пришел

Создавать темы 19-Дек-2015 20:22

[Профиль]  [ЛС] 
Показать сообщения:    
Ответить на тему

Текущее время: 15-Дек 09:43

Часовой пояс: UTC + 5



Вы не можете начинать темы
Вы не можете отвечать на сообщения
Вы не можете редактировать свои сообщения
Вы не можете удалять свои сообщения
Вы не можете голосовать в опросах
Вы не можете прикреплять файлы к сообщениям
Вы не можете скачивать файлы