Рим (полный 1й и 2 й сезоны) / Rome (Season 1 & 2) / Сезон: 1 - 2 / Серии: 1-12. 1-10 из 22 (Майкл Эптид, Аллен Коултер, Алан Пол, Стив Шилл, Тимоти Ван Паттен, Алан Тейлор, Джон Мэйб) [2007, Боевик, Мелодрама, Драма, Военный, История, BDRip] (MVO :

Ответить на тему
 

Чингиз ®

Стаж: 5 лет 7 месяцев

Сообщений: 37

Симпатии: 20

Рим (полный 1й и 2 й сезоны) / Rome (Season 1 & 2)
Год выпуска: 2007
Страна: США и Великобритания (BBC Television Centre)
Жанр: Боевик, Мелодрама, Драма, Военный, История
Продолжительность: 22 x ~ 00:55:00
Перевод: Профессиональный многоголосый закадровый Доп. инфо о переводе (Lostfilm) И НТВ+
Русские субтитры: есть
Режиссёр: Майкл Эптид, Аллен Коултер, Алан Пол, Стив Шилл, Тимоти Ван Паттен, Алан Тейлор, Джон Мэйб
В ролях: Кевин МакКидд, Рэй Стивенсон, Полли Уокер, Керри Кондон, Киаран Хайндс, Джеймс Пьюрфой, Йен МакНайс, Линдси Дункан, Лидия Бионди, Тобиаш Мензес, Дэвид Бамбер, Макс Пиркис, Ли Бордман
Описание: 52 год до нашей эры. Прошло 400 лет с момента основания республики. Рим превратился в самый богатый город в мире с населением более чем в миллион человек, символ мощи и несокрушимости могущественной Империи. Республика была издревле основана на принципах общедоступности и свободы волеизъявления, на борьбе свободных граждан за власть - это принцип должны были не позволить одному человеку узурпировать власть. Но теперь устои, казавшиеся незыблемыми - рушатся, патриции, основа старой республики погрязли в праздности и лени. Некогда мощная спартанская дисциплина не выдержала испытания роскошью и достатком. Обостряется борьба между богатыми патрициями и нищим плебсом. Гражданские институты ослабевают, все большую и большую роль начинает играть армия. Гай Юлий Цезарь в результате восьми лет упорной борьбы покорил Галлию и теперь триумфально возвращается в Рим. За ним идут закаленные в боях легионы, преданные лично ему. Патриции в ужасе - они угрожают преследовать Цезаря за военные преступления, если он войдет в Рим. Тонкое равновесие в сенате поддерживает только лишь старый друг и наставник Цезаря, Помпей Великий. В это время, два солдата 13-ого легиона Цезаря, Люций Варен и Тит Пуло, отправляются в дебри Галлии, чтобы отыскать утерянный штандарт их легиона, символ объединения войск Цезаря. Любовь и ненависть, дружба и непримиримое соперничество, верность и предательтсво - те вехи, на которых базируется история человечества с незапамятных времен. Вы увидите историю возвышения и падения величайших людей древности, прикоснетесь к тайнам одной из самых могущественных античных цивилизаций...
Доп. информация: HD Vision Studios, British Broadcasting Corporation (BBC), Home Box Office (HBO)
Качество: BDRip
Формат: AVI
Видео кодек: XviD
Аудио кодек: AC3
Видео: Xvid 720x400 23.98fps 1808kbps
Аудио: Dolby AC3 48000Hz 6ch 384kbps [Audio 1]
Аудио 2: Dolby AC3 48000Hz stereo 192kbps [Audio 2]

MediaInfo

General
Complete name : C:\Кино\Торрент\Rim.S01.2005.DUAL.BDRip.XviD.AC3.-HQ-ViDEO\Rim.S01E01.2005.DUAL.BDRip.XviD.AC3.-HQ-ViDEO.avi
Format : AVI
Format/Info : Audio Video Interleave
File size : 897 MiB
Duration : 52mn 17s
Overall bit rate : 2 398 Kbps
Movie name : Рим (Сезон 1) / Rome (Season 1)
Director : Linkorn (BDRip 720p)
Writing application : VirtualDubModRus 1.5.10.2 (build 2542/release)
Copyright : HQ-ViDEO (www.hq-video.ru)
Video
ID : 0
Format : MPEG-4 Visual
Format profile : Advanced [email protected]
Format settings, BVOP : 1
Format settings, QPel : No
Format settings, GMC : No warppoints
Format settings, Matrix : Default (H.263)
Codec ID : XVID
Codec ID/Hint : XviD
Duration : 52mn 17s
Bit rate : 1 808 Kbps
Width : 720 pixels
Height : 400 pixels
Display aspect ratio : 16:9
Frame rate : 23.976 fps
Color space : YUV
Chroma subsampling : 4:2:0
Bit depth : 8 bits
Scan type : Progressive
Compression mode : Lossy
Bits/(Pixel*Frame) : 0.262
Stream size : 676 MiB (75%)
Writing library : XviD 1.2.1 (UTC 2008-12-04)
Audio #1
ID : 1
Format : AC-3
Format/Info : Audio Coding 3
Mode extension : ME (music and effects)
Codec ID : 2000
Duration : 52mn 17s
Bit rate mode : Constant
Bit rate : 384 Kbps
Channel(s) : 6 channels
Channel positions : Front: L C R, Side: L R, LFE
Sampling rate : 48.0 KHz
Bit depth : 16 bits
Compression mode : Lossy
Stream size : 144 MiB (16%)
Alignment : Split accross interleaves
Interleave, duration : 42 ms (1.00 video frame)
Interleave, preload duration : 500 ms
Audio #2
ID : 2
Format : AC-3
Format/Info : Audio Coding 3
Mode extension : ME (music and effects)
Codec ID : 2000
Duration : 52mn 16s
Bit rate mode : Constant
Bit rate : 192 Kbps
Channel(s) : 2 channels
Channel positions : Front: L R
Sampling rate : 48.0 KHz
Bit depth : 16 bits
Compression mode : Lossy
Stream size : 71.8 MiB (8%)
Alignment : Split accross interleaves
Interleave, duration : 42 ms (1.00 video frame)
Interleave, preload duration : 500 ms

Скриншоты меню

Скриншоты

Создавать темы 18-Дек-2015 14:55

[Профиль]  [ЛС] 

boatswain

Стаж: 4 года 10 месяцев

Сообщений: 13

Я что-то не понял скачиваю данный резил и у меня трафик утек по полной? у кого ни будь есть такая же проблема плиз напишите в личку.

Создавать темы 26-Дек-2015 17:26

[Профиль]  [ЛС] 

Чингиз ®

Стаж: 5 лет 7 месяцев

Сообщений: 37

Симпатии: 20

963731Я что-то не понял скачиваю данный резил и у меня трафик утек по полной? у кого ни будь есть такая же проблема плиз напишите в личку.
Данный релиз полностью в системе Tas-IX

Создавать темы 27-Дек-2015 08:37

[Профиль]  [ЛС] 

max_d

Стаж: 4 года 4 месяца

Сообщений: 12

Симпатии: 2

СПАСИБО!!!!

Создавать темы 15-Апр-2016 14:07

[Профиль]  [ЛС] 

samira.husanova

Стаж: 2 года

Сообщений: 3

skorost dayti pojaluysta

Создавать темы 28-Май-2016 08:07

[Профиль]  [ЛС] 

user11

Стаж: 1 год 10 месяцев

Сообщений: 18

Симпатии: 3

ребята вернитесь на раздачу

Создавать темы 30-Авг-2016 20:26

[Профиль]  [ЛС] 

shuh2004

Стаж: 5 лет 9 месяцев

Сообщений: 41

Симпатии: 8

ребята вернитесь на раздачу

Создавать темы 02-Фев-2017 17:08

[Профиль]  [ЛС] 

youmymember

Стаж: 5 лет 8 месяцев

Сообщений: 47

дайте раздачу пожалуйста

Создавать темы 18-Июл-2017 07:01

[Профиль]  [ЛС] 
Показать сообщения:    
Ответить на тему

Текущее время: 20-Сен 05:25

Часовой пояс: UTC + 5



Вы не можете начинать темы
Вы не можете отвечать на сообщения
Вы не можете редактировать свои сообщения
Вы не можете удалять свои сообщения
Вы не можете голосовать в опросах
Вы не можете прикреплять файлы к сообщениям
Вы не можете скачивать файлы