Республика ШКИД (Геннадий Полока) [1966, комедия, DVDRip]

Ответить на тему
 

фазилов ®

Стаж: 3 года 10 месяцев

Сообщений: 310

Симпатии: 344

РЕСПУБЛИКА ШКИД
Жанр: комедия
Год выпуска: 1966
Продолжительность: 1:37:08
Режиссёр: Геннадий Полока

В ролях: Сергей Юрский, Юлия Бурыгина, Павел Луспекаев, Александр Мельников, Вера Титова, Анатолий Столбов, Георгий Колосов, Виолетта Жухимович, Лев Вайнштейн, Виктор Перевалов, Анатолий Подшивалов, Юрий Рычков, Александр Кавалеров.

Описание: 20-е годы. По улицам Питера шныряют колоритные и жалкие беспризорники, которых время от времени вылавливают для детских приемников. В одном из них - школе имени Достоевского (ШКИД) - собрались голодные, наглые и сообразительные оборвыши. Этим "приютом комедиантов" управляет старорежимный директор, не потерявший и при советской власти ни чести, ни интеллигентности. Его обезоруживающее доверие научило ребят мужскому достоинству, помогло не раствориться в беге смутного времени... Горькая человеческая комедия...
Доп. информация: По мотивам одноименной повести Г. Белых и Л. Пантелеева
Качество видео: DVDRip
Формат видео: AVI
Видео кодек: XviD
Аудио кодек: AC3

Видео: 720x360 (2,00:1), 25 000 fps, Bit rate:1 864 Kbps

Аудио: AC-3 (48 kbps), 2 channels,Bit rate:128 Kbps

MediaInfo

General
Complete name : D:\Мои релизы\Республика ШКИД.avi
Format : AVI
Format/Info : Audio Video Interleave
Format profile : OpenDML
File size : 1.36 GiB
Duration : 1h 37mn
Overall bit rate : 2 005 Kbps
Recorded date : 25/08/2011
Writing application : Lavf54.63.104
Comment : DVDRip by Barmoley #South Korea#
Video
ID : 0
Format : xvid
Codec ID : xvid
Duration : 1h 37mn
Bit rate : 1 864 Kbps
Width : 720 pixels
Height : 360 pixels
Display aspect ratio : 2.000
Frame rate : 25.000 fps
Bits/(Pixel*Frame) : 0.288
Stream size : 1.27 GiB (93%)
Audio
ID : 1
Format : AC-3
Format/Info : Audio Coding 3
Mode extension : CM (complete main)
Format settings, Endianness : Big
Codec ID : 2000
Duration : 1h 37mn
Bit rate mode : Constant
Bit rate : 128 Kbps
Channel(s) : 2 channels
Channel positions : Front: L R
Sampling rate : 48.0 KHz
Bit depth : 16 bits
Compression mode : Lossy
Stream size : 88.9 MiB (6%)
Alignment : Aligned on interleaves
Interleave, duration : 32 ms (0.80 video frame)

Скриншот c названием фильма

Скриншоты



Последний раз редактировалось: фазилов (2015-12-18 21:10), всего редактировалось 5 раз(а)

Создавать темы 18-Дек-2015 19:59

[Профиль]  [ЛС] 

фазилов ®

Стаж: 3 года 10 месяцев

Сообщений: 310

Симпатии: 344

Возможны перерывы в раздаче в связи с частыми отключениями электроэнергии aa

Создавать темы 18-Дек-2015 20:18

[Профиль]  [ЛС] 

фазилов ®

Стаж: 3 года 10 месяцев

Сообщений: 310

Симпатии: 344

Teredo включён ab

Создавать темы 19-Дек-2015 09:56

[Профиль]  [ЛС] 

фазилов ®

Стаж: 3 года 10 месяцев

Сообщений: 310

Симпатии: 344

Модераторы-проверьте релиз, плиз aa

Создавать темы 19-Дек-2015 17:32

[Профиль]  [ЛС] 
Показать сообщения:    
Ответить на тему

Текущее время: 15-Дек 17:24

Часовой пояс: UTC + 5



Вы не можете начинать темы
Вы не можете отвечать на сообщения
Вы не можете редактировать свои сообщения
Вы не можете удалять свои сообщения
Вы не можете голосовать в опросах
Вы не можете прикреплять файлы к сообщениям
Вы не можете скачивать файлы