Неудержимая юность / Blue Spring Ride (Такахиро Мики / Takahiro Miki) [2014, Япония, драма, мелодрама, DVDRip] [Любительский (двухголосый закадровый) (den904 & Izanami) по переводу [akira9]] (DVO : (den904 & Izanami) по переводу [akira9])

Ответить на тему
 

Greentea ®

Стаж: 2 года 7 месяцев

Сообщений: 13

Симпатии: 10

Неудержимая юность / Blue Spring Ride
Страна: Япония
Жанр: драма, мелодрама
Год выпуска: 2014
Продолжительность: 02:01:35
Перевод: Любительский (двухголосый закадровый) Доп. инфо о переводе (den904 & Izanami) по переводу [akira9]
Cубтитры: нет
Режиссер: Такахиро Мики / Takahiro Miki
В ролях: Цубаса Хонда, Масахиро Хигасидэ, Yua Shinkawa, Рю Йосизава, Изуми Фудзимото, Ю Коянаги, Мицуки Такахата, Юдай Тиба, Mizuki Itagaki...
Описание: Йосиока Футаба обычная школьница, которая не переносит парней. Однако среди них всех есть один, к кому она относится по-другому — Танака. В какой-то момент их отношения начинают развиваться, но Футабу шокирует новость о том, что Танака поменял школу за время летних каникул, не сказав ни слова. Смогут ли они встретиться снова?

Качество видео: DVDRip
Формат видео: AVI
Видео: MPEG-4 Visual at 725 Кбит/сек; 688 x 368 (1.870) at 23.976 fps
Аудио: MPEG Audio at 128 Кбит/сек; 2 канала, 48,0 КГц

MediaInfo

General
Complete name : D:\видео\Blue Spring Ride.2014.DVDRip.XviD.745MB. rip by [Assassin's Creed].avi
Format : AVI
Format/Info : Audio Video Interleave
File size : 750 MiB
Duration : 2h 1mn
Overall bit rate : 862 Kbps
Writing application : VirtualDubMod 1.5.10.3 | www.virtualdub-fr.org || (build 2550/release)
Writing library : VirtualDubMod build 2550/release
Video
ID : 0
Format : MPEG-4 Visual
Format profile : Advanced [email protected]
Format settings, BVOP : 1
Format settings, QPel : No
Format settings, GMC : No warppoints
Format settings, Matrix : Default (MPEG)
Codec ID : XVID
Codec ID/Hint : XviD
Duration : 2h 1mn
Bit rate : 725 Kbps
Width : 688 pixels
Height : 368 pixels
Display aspect ratio : 1.85:1
Frame rate : 23.976 fps
Color space : YUV
Chroma subsampling : 4:2:0
Bit depth : 8 bits
Scan type : Progressive
Compression mode : Lossy
Bits/(Pixel*Frame) : 0.119
Stream size : 630 MiB (84%)
Writing library : XviD 1.2.1 (UTC 2008-12-04)
Audio
ID : 1
Format : MPEG Audio
Format version : Version 1
Format profile : Layer 3
Codec ID : 55
Codec ID/Hint : MP3
Duration : 2h 1mn
Bit rate mode : Constant
Bit rate : 128 Kbps
Channel(s) : 2 channels
Sampling rate : 48.0 KHz
Compression mode : Lossy
Stream size : 111 MiB (15%)
Alignment : Aligned on interleaves
Interleave, duration : 42 ms (1.00 video frame)
Interleave, preload duration : 504 ms
Writing library : LAME3.99r
Encoding settings : -m s -V 4 -q 2 -lowpass 17 -b 128

Скриншот c названием фильма

Скриншоты

Создавать темы 19-Дек-2015 18:27

[Профиль]  [ЛС] 

LordWite

Стаж: 5 лет 2 месяца

Сообщений: 21

Стоит ли смотреть? Аниме вроде неплохим было

Создавать темы 13-Мар-2016 23:11

[Профиль]  [ЛС] 
Показать сообщения:    
Ответить на тему

Текущее время: 23-Окт 22:13

Часовой пояс: UTC + 5



Вы не можете начинать темы
Вы не можете отвечать на сообщения
Вы не можете редактировать свои сообщения
Вы не можете удалять свои сообщения
Вы не можете голосовать в опросах
Вы не можете прикреплять файлы к сообщениям
Вы не можете скачивать файлы