Видения / Visions (Кевин Гротерт / Kevin Greutert) [2015, США, Ужасы, триллер, HDTVRip] (Dub : Электрика)

Ответить на тему
 

UZM ®

Стаж: 5 лет 6 месяцев

Сообщений: 169

Симпатии: 189

Видения / Visions
Страна: США
Жанр: Ужасы, триллер
Год выпуска: 2015
Продолжительность: 01:22:21
Перевод: Профессиональный (дублированный) Доп. инфо о переводе Электрика
Cубтитры: нет
Режиссер: Кевин Гротерт / Kevin Greutert
В ролях: Айла Фишер, Джим Парсонс, Энсон Маунт, Ева Лонгория, Гиллиан Джейкобс, Джоанна Кэссиди, Джон де Ланси,
Брайс Джонсон, Джефф Брэнсон, Роберто «Санс» Санчес
Описание: Чтобы быть рядом со своим мужем, беременная женщина переезжает на виноградную ферму. Там ее начинают одолевать страшные видения…
Качество видео: WEB-DLRip
Формат видео: AVI
Видео: MPEG-4, Xvid 720x304 23.976fps 1897kbps
Аудио: Dolby AC3 48,0Hz stereo 192kbps
Аудио 2: Dolby AC3 48000Hz 6ch 384kbps

MediaInfo

General
Complete name : D:\Кино\8iDeN1ya.2015.D.WEB-DLRip.avi
Format : AVI
Format/Info : Audio Video Interleave
File size : 1.43 GiB
Duration : 1h 22mn
Overall bit rate : 2 487 Kbps
Movie name : 8iDeN1ya.2015.D.WEB-DLRip.ELEKTRI4KA.uniongang.tv
Writing application : VirtualDubMod 1.5.10.3 | www.virtualdub-fr.org || (build 2550/release)
Copyright : UNIONGANG&RUSTORRENTS
Video
ID : 0
Format : MPEG-4 Visual
Format profile : Advanced [email protected]
Format settings, BVOP : 2
Format settings, QPel : No
Format settings, GMC : No warppoints
Format settings, Matrix : Default (MPEG)
Codec ID : XVID
Codec ID/Hint : XviD
Duration : 1h 22mn
Bit rate : 1 897 Kbps
Width : 720 pixels
Height : 304 pixels
Display aspect ratio : 2.35:1
Frame rate : 23.976 fps
Color space : YUV
Chroma subsampling : 4:2:0
Bit depth : 8 bits
Scan type : Progressive
Compression mode : Lossy
Bits/(Pixel*Frame) : 0.362
Stream size : 1.09 GiB (76%)
Writing library : XviD 1.2.1 (UTC 2008-12-04)
Audio #1
ID : 1
Format : AC-3
Format/Info : Audio Coding 3
Mode extension : CM (complete main)
Format settings, Endianness : Big
Codec ID : 2000
Duration : 1h 22mn
Bit rate mode : Constant
Bit rate : 192 Kbps
Channel(s) : 2 channels
Channel positions : Front: L R
Sampling rate : 48.0 KHz
Compression mode : Lossy
Stream size : 113 MiB (8%)
Alignment : Split accross interleaves
Interleave, duration : 42 ms (1.00 video frame)
Interleave, preload duration : 500 ms
Audio #2
ID : 2
Format : AC-3
Format/Info : Audio Coding 3
Mode extension : CM (complete main)
Format settings, Endianness : Big
Codec ID : 2000
Duration : 1h 22mn
Bit rate mode : Constant
Bit rate : 384 Kbps
Channel(s) : 6 channels
Channel positions : Front: L C R, Side: L R, LFE
Sampling rate : 48.0 KHz
Compression mode : Lossy
Stream size : 226 MiB (15%)
Alignment : Split accross interleaves
Interleave, duration : 42 ms (1.00 video frame)
Interleave, preload duration : 500 ms

Скриншот c названием фильма

Скриншоты

,
,
,
,

Создавать темы 19-Дек-2015 19:55

[Профиль]  [ЛС] 

UZM ®

Стаж: 5 лет 6 месяцев

Сообщений: 169

Симпатии: 189

Раздаю как дадут свет, сейчас режим 4 на 2 часа

Создавать темы 20-Дек-2015 21:12

[Профиль]  [ЛС] 

westcoast2012

Стаж: 5 лет 6 месяцев

Сообщений: 17

а почему нет сидов и не качают совсем?

Создавать темы 21-Дек-2015 18:54

[Профиль]  [ЛС] 

UZM ®

Стаж: 5 лет 6 месяцев

Сообщений: 169

Симпатии: 189

А у нас в квартире газ а у вас

Создавать темы 21-Дек-2015 19:47

[Профиль]  [ЛС] 
Показать сообщения:    
Ответить на тему

Текущее время: 11-Дек 10:39

Часовой пояс: UTC + 5



Вы не можете начинать темы
Вы не можете отвечать на сообщения
Вы не можете редактировать свои сообщения
Вы не можете удалять свои сообщения
Вы не можете голосовать в опросах
Вы не можете прикреплять файлы к сообщениям
Вы не можете скачивать файлы