Экспериментатор / Experimenter (Майкл Алмерейда) [2015, США, драма, биография, история, WEB-DLRip] MVO [Ozz.tv]

Ответить на тему
 

ruhal ®

Стаж: 2 года 4 месяца

Сообщений: 1182

Симпатии: 1836

- -Экспериментатор / Experimenter- -
Страна: США
Жанр: драма, биография, история
Год выпуска: 2015
Продолжительность: 01:38-Перевод: Профессиональный (многоголосый) [Ozz.tv]
Cубтитры: нет-Режиссер: Майкл Алмерейда-В ролях: Вайнона Райдер, Тэрин Мэннинг, Джон Легуизамо, Антон Ельчин,
Питер Сарсгаард, Келлан Латс, Лори Сингер, Энтони Эдвардс, Деннис Хейсбёрт, Вонди Куртис-Холл-Описание: Знаменитый психолог Стенли Милграм в 1961 году провел ряд
радикальных поведенческих экспериментов, в процессе которых проверялась готовность обычных людей подчиняться власти.-Качество видео: WEB-DLRip
Формат видео: AVI
Видео: Xvid 720x400 23.976fps 1804kbps
Аудио: Dolby AC3 44100Hz stereo 192kbps
-

MediaInfo

General
Complete name : E:\Films\EcsPer1mentat0r.2015.P.WEB-DLRip.1400MB.avi
Format : AVI
Format/Info : Audio Video Interleave
File size : 1.37 GiB
Duration : 1h 38mn
Overall bit rate : 2 006 Kbps
Writing application : VirtualDubMod 1.5.10.2 (build 2540/release)
Writing library : VirtualDubMod build 2540/release
Video
ID : 0
Format : MPEG-4 Visual
Format profile : Advanced [email protected]
Format settings, BVOP : 2
Format settings, QPel : No
Format settings, GMC : No warppoints
Format settings, Matrix : Default (H.263)
Muxing mode : Packed bitstream
Codec ID : XVID
Codec ID/Hint : XviD
Duration : 1h 38mn
Bit rate : 1 804 Kbps
Width : 720 pixels
Height : 400 pixels
Display aspect ratio : 16:9
Frame rate : 23.976 fps
Color space : YUV
Chroma subsampling : 4:2:0
Bit depth : 8 bits
Scan type : Progressive
Compression mode : Lossy
Bits/(Pixel*Frame) : 0.261
Stream size : 1.24 GiB (90%)
Writing library : XviD 66
Audio
ID : 1
Format : AC-3
Format/Info : Audio Coding 3
Mode extension : CM (complete main)
Format settings, Endianness : Big
Codec ID : 2000
Duration : 1h 38mn
Bit rate mode : Constant
Bit rate : 192 Kbps
Channel(s) : 2 channels
Channel positions : Front: L R
Sampling rate : 44.1 KHz
Bit depth : 16 bits
Compression mode : Lossy
Stream size : 135 MiB (10%)
Alignment : Split accross interleaves
Interleave, duration : 42 ms (1.00 video frame)
Interleave, preload duration : 500 ms

Скриншот c названием фильма

Скриншоты



Создавать темы 19-Дек-2015 21:24

[Профиль]  [ЛС] 

almas

Стаж: 5 лет 7 месяцев

Сообщений: 30

Симпатии: 2

На верхнем постере грудь приподнята и кажется она сейчас вылетит. А на втором выглядит более естественней. Хотя картинки идентичны

Создавать темы 20-Дек-2015 14:36

[Профиль]  [ЛС] 

Paladinuz

Стаж: 5 лет 6 месяцев

Сообщений: 137

Симпатии: 85

962980На верхнем постере грудь приподнята и кажется она сейчас вылетит. А на втором выглядит более естественней. Хотя картинки идентичны
Заметил...да... а как фильм то ))

Создавать темы 20-Дек-2015 16:00

[Профиль]  [ЛС] 

Admin

Стаж: 5 лет 7 месяцев

Сообщений: 580

Симпатии: 106

Экспериментатор, вот и с постером поэкспериментировали.

Создавать темы 20-Дек-2015 17:41

[Профиль]  [ЛС] 
Показать сообщения:    
Ответить на тему

Текущее время: 24-Авг 06:10

Часовой пояс: UTC + 5



Вы не можете начинать темы
Вы не можете отвечать на сообщения
Вы не можете редактировать свои сообщения
Вы не можете удалять свои сообщения
Вы не можете голосовать в опросах
Вы не можете прикреплять файлы к сообщениям
Вы не можете скачивать файлы