Новейший завет / Le tout nouveau testament (Жако ван Дормель) [2015., комедия, WEB-DLRip] [iTunes]

Ответить на тему
 

Zab ®

Стаж: 6 лет 5 месяцев

Сообщений: 476

Симпатии: 424

Новейший завет / Le tout nouveau testament (2015) WEB-DLRip«Бог существует! И он живет... в Брюсселе»
-Производство: Бельгия, Франция, Люксембург
Жанр: Комедия
Год выпуска : 2015
Продолжительность: 01:54:30
Перевод: Дублированный (iTunes)-Режиссер: Жако ван Дормель
Продюсер: Жако ван Дормель, Жан-Ив Асселин, Дэвид Клейкенс
Актеры: Бенуа Пульворд, Катрин Денёв, Франсуа Дамиенс, Иоланда Моро, Пили Груан, Лаура Верлинден, Серж Ларивье, Дидье Де Нек, Марко Лоренцини, Ромен Желен-Описание:
Да, Бог существует. Но он совсем не такой, каким мы его представляли. Он живет в Брюсселе, и у него есть не только сын, но и дочь. Она сбегает из дома и отправляется в наш мир искать приключения и испытывать терпение своего отца на прочность. Надолго ли его хватит?..- -Дата мировой премьеры: 17 мая 2015
Дата премьеры в России: 12 ноября 2015, «Премиум Фильм»-Качество видео: WEB-DLRip
Видео кодек: Xvid
Аудио кодек: AC3
Видео: Xvid, 720x304, ~1433 kbps
Аудио: AC3, 6 ch, 384 kbps-

Скриншоты



MI

Общее
Полное имя                               :Noveiwiy.Zavet.2015.D.WEB-DLRip.avi
Формат                                   : AVI
Формат/Информация                        : Audio Video Interleave
Размер файла                             : 1,46 Гбайт
Продолжительность                        : 1 ч. 54 м.
Общий поток                              : 1826 Кбит/сек
Программа кодирования                    : VirtualDubMod 1.5.10.3 | | (build 2550/release)
Библиотека кодирования                   : VirtualDubMod build 2550/release
Видео
Идентификатор                            : 0
Формат                                   : MPEG-4 Visual
Профиль формата                          : Advanced [email protected]
Параметр BVOP формата                    : 2
Параметр QPel формата                    : Нет
Параметр GMC формата                     : Без точки перехода
Параметр матрицы формата                 : Default (MPEG)
Идентификатор кодека                     : XVID
Идентификатор кодека/Подсказка           : XviD
Продолжительность                        : 1 ч. 54 м.
Битрейт                                  : 1433 Кбит/сек
Ширина                                   : 720 пикселей
Высота                                   : 304 пикселя
Соотношение сторон                       : 2,35:1
Частота кадров                           : 24,000 кадра/сек
Цветовое пространство                    : YUV
Субдискретизация насыщенности            : 4:2:0
Битовая глубина                          : 8 бит
Тип развёртки                            : Прогрессивная
Метод сжатия                             : С потерями
Бит/(Пиксели*Кадры)                      : 0.273
Размер потока                            : 1,15 Гбайт (78%)
Библиотека кодирования                   : XviD 1.2.1 (UTC 2008-12-04)
Аудио
Идентификатор                            : 1
Формат                                   : AC-3
Формат/Информация                        : Audio Coding 3
Расширение режима                        : CM (complete main)
Параметр Endianness формата              : Big
Идентификатор кодека                     : 2000
Продолжительность                        : 1 ч. 54 м.
Вид битрейта                             : Постоянный
Битрейт                                  : 384 Кбит/сек
Каналы                                   : 6 каналов
Расположение каналов                     : Front: L C R, Side: L R, LFE
Частота                                  : 48,0 КГц
Метод сжатия                             : С потерями
Размер потока                            : 315 Мбайт (21%)
Выравнивание                             : Разделение по промежуткам
Продолжительность промежутка             : 42  мс. (1,00 видеокадр)
Время предзагрузки промежутка            : 500  мс.


Последний раз редактировалось: Zab (2015-12-20 20:43), всего редактировалось 1 раз

Создавать темы 20-Дек-2015 09:26

[Профиль]  [ЛС] 

dimon010496

Стаж: 3 года 8 месяцев

Сообщений: 1

Симпатии: 1

в конце фильма бог в artel стиральные машины собирает

Создавать темы 22-Дек-2015 16:38

[Профиль]  [ЛС] 

fantomas88

Стаж: 6 лет 9 месяцев

Сообщений: 23

Симпатии: 2

Бог среди нас

Создавать темы 22-Дек-2015 22:27

[Профиль]  [ЛС] 

Books

Стаж: 3 года 10 месяцев

Сообщений: 2

Я "JACO VAN DORMAEL" в рот... тупой режиссер

Создавать темы 31-Дек-2015 08:08

[Профиль]  [ЛС] 

Топик был перенесен из форума Фильмы за 2015 в форум Арт-хаус и авторское кино
kat222000

Создавать темы 05-Фев-2016 21:13

 
Показать сообщения:    
Ответить на тему

Текущее время: 26-Сен 10:42

Часовой пояс: UTC + 5



Вы не можете начинать темы
Вы не можете отвечать на сообщения
Вы не можете редактировать свои сообщения
Вы не можете удалять свои сообщения
Вы не можете голосовать в опросах
Вы не можете прикреплять файлы к сообщениям
Вы не можете скачивать файлы