Дама в очках и с ружьем в автомобиле / The Lady in the Car with Glasses and a Gun (Жоанн Сфар / Joann Sfar) [2015, Франция, Бельгия, Триллер, HDRip] (Dub)

Ответить на тему
 

UZM ®

Стаж: 5 лет 4 месяца

Сообщений: 169

Симпатии: 189

Дама в очках и с ружьем в автомобиле / The Lady in the Car with Glasses and a Gun
Страна: Франция, Бельгия
Жанр: Триллер
Год выпуска: 2015
Продолжительность: 01:39:49
Перевод: Профессиональный (дублированный)
Cубтитры: нет
Режиссер: Жоанн Сфар / Joann Sfar
В ролях: Фрейя Мавор, Бенжамин Биолэй, Элио Джермано, Стэйси Мартин, Тьерри Анкиссе, Сандрин Ларош, Фредерик Этерлинк, Ален Белло, Эдуар Жиар, Франсуа-Доминик Блен
Описание: Она самая прекрасная, самая чувственная, самая импульсивная, самая упрямая, самая незадачливая девушка. Она хотела воплотить мечту и увидеть море, а в результате попала в невероятную переделку. В чужом автомобиле и с трупом в багажнике, скрываясь от полиции и рискуя собственной жизнью, ей осталось только одно — убедить себя в том, что она еще не окончательно сошла с ума, и что она — это она, а не кто-то другой…
Качество видео: HDRip
Формат видео: AVI
Видео: Xvid 720x304 24fps 1670kbps
Аудио: Dolby AC3 48000Hz 6ch 384kbps

MediaInfo

General
Complete name : D:\Кино\Dama.V.OCHkah.2015.D.HDRip.1400MB.avi
Format : AVI
Format/Info : Audio Video Interleave
File size : 1.37 GiB
Duration : 1h 34mn
Overall bit rate : 2 064 Kbps
Writing application : VirtualDubMod 1.5.10.2 (build 2540/release)
Writing library : VirtualDubMod build 2540/release
Video
ID : 0
Format : MPEG-4 Visual
Format profile : Advanced [email protected]
Format settings, BVOP : 2
Format settings, QPel : No
Format settings, GMC : No warppoints
Format settings, Matrix : Default (MPEG)
Codec ID : XVID
Codec ID/Hint : XviD
Duration : 1h 34mn
Bit rate : 1 671 Kbps
Width : 720 pixels
Height : 304 pixels
Display aspect ratio : 2.35:1
Frame rate : 24.000 fps
Color space : YUV
Chroma subsampling : 4:2:0
Bit depth : 8 bits
Scan type : Progressive
Compression mode : Lossy
Bits/(Pixel*Frame) : 0.318
Stream size : 1.11 GiB (81%)
Writing library : XviD 1.2.1 (UTC 2008-12-04)
Audio
ID : 1
Format : AC-3
Format/Info : Audio Coding 3
Mode extension : CM (complete main)
Format settings, Endianness : Big
Codec ID : 2000
Duration : 1h 34mn
Bit rate mode : Constant
Bit rate : 384 Kbps
Channel(s) : 6 channels
Channel positions : Front: L C R, Side: L R, LFE
Sampling rate : 48.0 KHz
Compression mode : Lossy
Stream size : 260 MiB (19%)
Alignment : Split accross interleaves
Interleave, duration : 42 ms (1.00 video frame)
Interleave, preload duration : 500 ms

Скриншот c названием фильма

Скриншоты

,
,
,

Создавать темы 22-Дек-2015 13:51

[Профиль]  [ЛС] 

gold_man

Стаж: 8 лет

Сообщений: 162

Симпатии: 18

поцыки кто скачал оцените фильм ? td

Создавать темы 23-Дек-2015 22:20

[Профиль]  [ЛС] 
Показать сообщения:    
Ответить на тему

Текущее время: 25-Сен 16:44

Часовой пояс: UTC + 5



Вы не можете начинать темы
Вы не можете отвечать на сообщения
Вы не можете редактировать свои сообщения
Вы не можете удалять свои сообщения
Вы не можете голосовать в опросах
Вы не можете прикреплять файлы к сообщениям
Вы не можете скачивать файлы