Синистер 2 / Sinister 2 (Киран Фой) [2015 г., ужасы, триллер, детектив, HDRip] DUB [Чистый звук]

Ответить на тему
 

mp1988 ®

Стаж: 6 лет 8 месяцев

Сообщений: 607

Симпатии: 971


Синистер 2 / Sinister 2
«Бойся того, во что играют твои дети»
Год выпуска: 2015
Страна: США, Великобритания
Жанр: ужасы, триллер, детектив
Продолжительность: 01:36:42
Перевод: Профессиональный (полное дублирование) [Чистый звук]
Субтитры: Нет-Режиссер: Киран Фой / Ciarán Foy-В ролях: Джеймс Рэнсон(Ex-Deputy So & So), Шаннин Соссамон(Courtney Collins), Роберт Дэниэл Слоун(Dylan Collins), Дартаниан Слоун(Zach Collins), Лиа Коко(Clint Collins), Тейт Эллингтон(Dr. Stomberg), Джон Бизли(Father Rodriguez), Лукас Джейд Зуманн(Milo (Sunday Service Boy)), Джейден Клейн(Ted (Fishing Trip Boy)), Лайла Хейли(Emma (Christmas Morning Girl)), Кейден М. Фриц(Peter (Kitchen Remodel Boy)), Оливия Рэйни(Catherine (Dentist Appointment Girl))-Описание:
Сиквел рассказывает о молодом шерифе, решившем продолжить расследование серии таинственных убийств, описанных в первой части фильма, из-за которых в своё время потерял жизнь друг шерифа, сержант Элиссон Освальф.
Расследование приводит шерифа к ферме, где он знакомится с дружелюбной семьей - близнецами Заком, Диланом и их матерью Кортни. Семьей, сбежавшей от издевательств жестокого отца. Каждый день, проведенный в этом доме, может стать для них последним, как и для всех, кто жил здесь ранее и попал в поле зрения самой смерти - беспощадного демона Багула.-Рейтинг:
 MPAA: R - Лицам до 17 лет обязательно присутствие взрослого-Качество: HDRip
Формат: AVI
Видео кодек: XviD
Аудио кодек: AC3
Видео: 720x304 (2.37:1), 24 fps, XviD build 73 ~1 942 Kbps ,
Аудио : 48 kHz, AC3 Dolby Digital, 2/0 (L,R) ch, ~192 kbps

Скриншоты



MediaInfo

Format : AVI
Format/Info : Audio Video Interleave
File size : 1.45 GiB
Duration : 1h 37mn
Overall bit rate : 2 143 Kbps
Writing application : VirtualDubMod 1.5.10.3 | www.virtualdub-fr.org || (build 2550/release)
Copyright : UNIONGANG&RUSTORRENTS
Video
ID : 0
Format : MPEG-4 Visual
Format profile : Advanced [email protected]
Format settings, BVOP : 2
Format settings, QPel : No
Format settings, GMC : No warppoints
Format settings, Matrix : Default (MPEG)
Codec ID : XVID
Codec ID/Hint : XviD
Duration : 1h 37mn
Bit rate : 1 942 Kbps
Width : 720 pixels
Height : 304 pixels
Display aspect ratio : 2.35:1
Frame rate : 24.000 fps
Color space : YUV
Chroma subsampling : 4:2:0
Bit depth : 8 bits
Scan type : Progressive
Compression mode : Lossy
Bits/(Pixel*Frame) : 0.370
Stream size : 1.32 GiB (91%)
Writing library : XviD 1.2.1 (UTC 2008-12-04)
Audio
ID : 1
Format : AC-3
Format/Info : Audio Coding 3
Mode extension : CM (complete main)
Format settings, Endianness : Big
Codec ID : 2000
Duration : 1h 37mn
Bit rate mode : Constant
Bit rate : 192 Kbps
Channel(s) : 2 channels
Channel positions : Front: L R
Sampling rate : 48.0 KHz
Bit depth : 16 bits
Compression mode : Lossy
Stream size : 133 MiB (9%)
Alignment : Split accross interleaves
Interleave, duration : 42 ms (1.00 video frame)
Interleave, preload duration : 500 ms

Создавать темы 22-Дек-2015 20:41

[Профиль]  [ЛС] 
Показать сообщения:    
Ответить на тему

Текущее время: 19-Окт 05:10

Часовой пояс: UTC + 5



Вы не можете начинать темы
Вы не можете отвечать на сообщения
Вы не можете редактировать свои сообщения
Вы не можете удалять свои сообщения
Вы не можете голосовать в опросах
Вы не можете прикреплять файлы к сообщениям
Вы не можете скачивать файлы