Камера 213 / Cell 213 (Стефен Т. Кэй) [2011, Канада, ужасы, ..., BDRip-AVC] (Dub)

Ответить на тему
 

lucky999 ®

Стаж: 1 год 11 месяцев

Сообщений: 32

Симпатии: 43

Камера 213 / Cell 213
Страна: Канада
Жанр: ужасы, ...
Год выпуска: 2011
Продолжительность: 01:49:07
Перевод: Профессиональный (дублированный)
Режиссер: Стефен Т. Кэй
В ролях: Брюс Гринвуд, Эрик Бальфур, Майкл Рукер, Дебора Валенте, Конрад Коутс, Мари-Жозе Колберн, Дарлен Кук, Мюррэй Фюрроу, Тамара Горски, Ротафорд Грэй
Описание: История крутится вокруг самоуверенного адвоката, которого обвиняют в убийстве и бросают в страшную камеру 213, в которой, кажется, обитают силы более пугающие, чем любой самый жестокий надзиратель.
Доп. информация:
IMDB рейтинг: 4.2/10
КиноПоиск рейтинг: 5.4/10
Качество видео: BDRip-AVC
Формат видео: MKV
Видео: MPEG4 Video (H264) 960x400 23.976fps [V: h264 high L4.1, yuv420p, 960x400
Аудио: Dolby AC3 48000Hz 6ch 448kbps [A: Russian [rus] (ac3, 48000 Hz, 5.1, 448 kb/s)

MediaInfo

General
Unique ID : 243529598485550724107881902844549451270 (0xB73618382696BA8E89510D9E7112CE06)
Complete name : E:\torrent\Cell.213.2011.BDRip-AVC.Dub.1.45Gb...stalkerok.new-team.mkv
Format : Matroska
Format version : Version 4 / Version 2
File size : 1.46 GiB
Duration : 1h 49mn
Overall bit rate : 1 916 Kbps
Movie name : Cell 213 (2011) (New-Team) (Rip by Stalker oK)
Encoded date : UTC 2015-10-29 16:15:42
Writing application : mkvmerge v7.9.0 ('Birds') 64bit
Writing library : libebml v1.3.1 + libmatroska v1.4.2
DURATION : 01:48:30.836000000
NUMBER_OF_FRAMES : 920
NUMBER_OF_BYTES : 32716
_STATISTICS_WRITING_APP : mkvmerge v7.9.0 ('Birds') 64bit
_STATISTICS_WRITING_DATE_UTC : 2015-10-29 16:15:42
_STATISTICS_TAGS : BPS DURATION NUMBER_OF_FRAMES NUMBER_OF_BYTES
Video
ID : 1
Format : AVC
Format/Info : Advanced Video Codec
Format profile : [email protected]
Format settings, CABAC : Yes
Format settings, ReFrames : 12 frames
Codec ID : V_MPEG4/ISO/AVC
Duration : 1h 49mn
Bit rate : 1 470 Kbps
Width : 960 pixels
Height : 400 pixels
Display aspect ratio : 2.40:1
Frame rate mode : Constant
Frame rate : 23.976 fps
Color space : YUV
Chroma subsampling : 4:2:0
Bit depth : 8 bits
Scan type : Progressive
Bits/(Pixel*Frame) : 0.160
Stream size : 1.09 GiB (75%)
Writing library : x264 core 146 r2538kMod 121396c
Encoding settings : cabac=1 / ref=12 / deblock=1:-3:-3 / analyse=0x3:0x133 / me=umh / subme=11 / psy=1 / fade_compensate=0.00 / psy_rd=1.00:0.10 / mixed_ref=1 / me_range=48 / chroma_me=1 / trellis=2 / 8x8dct=1 / cqm=0 / deadzone=21,11 / fast_pskip=0 / chroma_qp_offset=-3 / threads=12 / lookahead_threads=3 / sliced_threads=0 / nr=0 / decimate=0 / interlaced=0 / bluray_compat=0 / constrained_intra=0 / fgo=0 / bframes=14 / b_pyramid=2 / b_adapt=2 / b_bias=0 / direct=3 / weightb=1 / open_gop=0 / weightp=2 / keyint=240 / keyint_min=23 / scenecut=40 / intra_refresh=0 / rc_lookahead=60 / rc=2pass / mbtree=0 / bitrate=1470 / ratetol=1.0 / qcomp=0.70 / qpmin=0 / qpmax=69 / qpstep=4 / cplxblur=20.0 / qblur=0.5 / vbv_maxrate=50000 / vbv_bufsize=62500 / nal_hrd=none / filler=0 / ip_ratio=1.40 / pb_ratio=1.30 / aq=3:0.85
Default : Yes
Forced : No
DURATION : 01:49:07.416000000
NUMBER_OF_FRAMES : 156981
NUMBER_OF_BYTES : 1200314747
_STATISTICS_WRITING_APP : mkvmerge v7.9.0 ('Birds') 64bit
_STATISTICS_WRITING_DATE_UTC : 2015-10-29 16:15:42
_STATISTICS_TAGS : BPS DURATION NUMBER_OF_FRAMES NUMBER_OF_BYTES
Audio
ID : 2
Format : AC-3
Format/Info : Audio Coding 3
Mode extension : CM (complete main)
Format settings, Endianness : Big
Codec ID : A_AC3
Duration : 1h 49mn
Bit rate mode : Constant
Bit rate : 448 Kbps
Channel(s) : 6 channels
Channel positions : Front: L C R, Side: L R, LFE
Sampling rate : 48.0 KHz
Compression mode : Lossy
Stream size : 350 MiB (23%)
Language : Russian
Default : Yes
Forced : No
Text #1
ID : 3
Format : UTF-8
Codec ID : S_TEXT/UTF8
Codec ID/Info : UTF-8 Plain Text
Title : Forced
Language : Russian
Default : Yes
Forced : No
Text #2
ID : 4
Format : UTF-8
Codec ID : S_TEXT/UTF8
Codec ID/Info : UTF-8 Plain Text
Title : Blu-Ray
Language : Russian
Default : No
Forced : No
Text #3
ID : 5
Format : UTF-8
Codec ID : S_TEXT/UTF8
Codec ID/Info : UTF-8 Plain Text
Title : SDH
Language : English
Default : No
Forced : No
Menu
00:00:00.000 : :(01)00:00:00:000
00:09:24.564 : :(02)00:09:24:564
00:20:10.250 : :(03)00:20:10:250
00:26:30.922 : :(04)00:26:30:922
00:33:12.657 : :(05)00:33:12:657
00:41:23.856 : :(06)00:41:23:856
00:49:30.550 : :(07)00:49:30:550
00:56:45.819 : :(08)00:56:45:819
01:09:12.523 : :(09)01:09:12:523
01:16:04.142 : :(10)01:16:04:142
01:27:34.916 : :(11)01:27:34:916
01:44:07.282 : :(12)01:44:07:282

Скриншоты








Создавать темы 23-Дек-2015 01:27

[Профиль]  [ЛС] 
Показать сообщения:    
Ответить на тему

Текущее время: 23-Авг 20:27

Часовой пояс: UTC + 5



Вы не можете начинать темы
Вы не можете отвечать на сообщения
Вы не можете редактировать свои сообщения
Вы не можете удалять свои сообщения
Вы не можете голосовать в опросах
Вы не можете прикреплять файлы к сообщениям
Вы не можете скачивать файлы