У меня мало друзей / Boku wa Tomodachi ga Sukunai [Сборник] [без хардсаба] [RUS(ext), JAP+SUB] [2011-2013 г., комедия, пародия, этти, школа, BDRip] [720p]

Ответить на тему
 

Razrushitel ®

Стаж: 4 года 4 месяца

Сообщений: 148

Симпатии: 42

У меня мало друзей (ТВ-1) / Boku wa Tomodachi ga Sukunai (Сайто Хисаси) [TV] [12 из 12] [без хардсаба] [RUS(ext), JAP+SUB] [2011 г., комедия, пародия, этти, школа, BDRip] [720p]

- Страна: Япония
Год выпуска: 2011
Выпуск: c 07.10.2011 по 23.12.2011
Жанр: комедия, пародия, этти, школа
Тип: ТВ (12 эп.), 25 мин.-Перевод:
  • русские субтитры от Advantage (полные/вспомогательные)
    переводчики: Crash'n'Burn, kawasaki, Schum, редакторы: Gotrics, Schum, перевод песен: Матадор
Озвучивание:
  • трёхголосая от Enilou & Eladiel & Say [1-5], двухголосая (муж./жен.) от Enilou & Eladiel [6-12] (AniLibria)
-Режиссер: Сайто Хисаси
Автор оригинала: Хирасака Ёми
Студия: AIC-Описание: 17-летний Кодака Хасэгава – полуяпонец, полуангличанин, блондин с нестандартной внешностью. Старая история – в каждой школе нормального и хозяйственного парня принимают за хулигана и обходят стороной, вот и академия Св. Хроники не стала исключением. Слоняясь в одиночестве по коридорам, Кодака заглянул в пустующий класс и не поверил глазам: одноклассница Ёдзора Микадзуки, умница, красавица, но такая же угрюмая одиночка, как он сам, весело болтала с подругой… увы, воображаемой. Слово за слово, ребята заговорили о жизни, о дружбе, и поняли, что, несмотря на всю внешнюю крутизну, хотели бы завести друзей, но не знают как. Решение оказалось на поверхности – надо создать новый клуб!
Творить добро легко и приятно, потому герои мобилизовали все свои недюжинные способности. Очень скоро согласно канону жанра в новом «клубе соседей», разместившемся в школьной церкви, начали собираться самые разные личности, притянутые харизмой основателей. Молодая монахиня Мария, не умеющая ладить с людьми. Звезда школы Сэна Касивадзаки, вместо поклонения захотевшая обычной дружбы. Юная сумасшедшая ученая, по совместительству – фанатка сенен-ай. Весьма симпатичный парень, обожающий косплей и кроссдрессинг. Умильная сестренка главного героя… Да, да, все это уже было! Но ведь хорошие вещи можно смотреть бесконечно!© Hollow, World Art--Информационные ссылки: AniDB || World Art || MyAnimeList--MyAnimeList.NET: 7.65 (scored by 151,502 users)
Ranked: #1091--Качество: BDRip
Encode: Yousei-raws || Re-encoded: Razrushitel
Тип видео: без хардсаба || Формат: mkv
Видео: x264 (Hi10p), 1280x720, ~800 Kbps, 23.976 fps
Аудио JAP: AC3, 48000Hz, ~128 Kbps, 2ch (в составе контейнера)
Аудио RUS: AC3, 48000Hz, ~128 Kbps, 2ch (внешними файлами)-

Список эпизодов

01. We Can`t Make Friends
02. There Is No God in An Electronic World
03. There Are No Flags at the Pool
04. Underclassmen Don`t Know How to Hold Back
05. Now SAGA is Locked in Full-on Battle
06. The Karaoke Box has Few Customers
07. My Cell Phone Has Few Phone Calls!
08. No School Swimsuits This Time
09. The Board Chairman`s Memories are Painful
10. No One Sleeps at Training Camp
11. You See, Girls Wearing Yukata are Extremely Cute
12. We Have Few Friends

Скриншоты

Подробные тех. данные

Общее
Уникальный идентификатор                 : 174989551942058853225935627056277897761 (0x83A5C305967418859C9DCFB48FB44221)
Полное имя                               : E:\*****\Boku wa Tomodachi ga Sukunai [Hi10] [BD 720p]\Boku wa Tomodachi ga Sukunai TV-1 [BD] [720p]\Boku wa Tomodachi ga Sukunai - 01 [Hi10] [BD 720p].mkv
Формат                                   : Matroska
Версия формата                           : Version 2
Размер файла                             : 156 Мбайт
Продолжительность                        : 24 м.
Общий поток                              : 888 Кбит/сек
Дата кодирования                         : UTC 2015-07-05 13:50:46
Программа кодирования                    : mkvmerge v7.7.0 ('Six Voices') 32bit built on Feb 28 2015 23:23:00
Библиотека кодирования                   : libebml v1.3.1 + libmatroska v1.4.2
_STATISTICS_WRITING_APP                  : mkvmerge v7.7.0 ('Six Voices') 32bit built on Feb 28 2015 23:23:00
_STATISTICS_WRITING_DATE_UTC             : 2015-07-05 13:50:46
_STATISTICS_TAGS                         : BPS DURATION NUMBER_OF_FRAMES NUMBER_OF_BYTES
DURATION                                 : 00:24:32.096000000
NUMBER_OF_FRAMES                         : 46003
NUMBER_OF_BYTES                          : 23553536
Видео
Идентификатор                            : 1
Формат                                   : AVC
Формат/Информация                        : Advanced Video Codec
Профиль формата                          : High [email protected]
Параметр CABAC формата                   : Да
Параметр ReFrames формата                : 4 кадра
Идентификатор кодека                     : V_MPEG4/ISO/AVC
Продолжительность                        : 24 м.
Битрейт                                  : 742 Кбит/сек
Ширина                                   : 1280 пикселей
Высота                                   : 720 пикселей
Соотношение сторон                       : 16:9
Режим частоты кадров                     : Постоянный
Частота кадров                           : 23,976 кадра/сек
Цветовое пространство                    : YUV
Субдискретизация насыщенности            : 4:2:0
Битовая глубина                          : 10 бит
Тип развёртки                            : Прогрессивная
Бит/(Пиксели*Кадры)                      : 0.034
Размер потока                            : 130 Мбайт (84%)
Библиотека кодирования                   : x264 core 146 r2538 121396c
Настройки программы                      : cabac=1 / ref=3 / deblock=1:0:0 / analyse=0x3:0x113 / me=hex / subme=7 / psy=1 / psy_rd=1.00:0.00 / mixed_ref=1 / me_range=16 / chroma_me=1 / trellis=1 / 8x8dct=1 / cqm=0 / deadzone=21,11 / fast_pskip=1 / chroma_qp_offset=-2 / threads=3 / lookahead_threads=1 / sliced_threads=0 / nr=0 / decimate=1 / interlaced=0 / bluray_compat=0 / constrained_intra=0 / bframes=3 / b_pyramid=2 / b_adapt=1 / b_bias=0 / direct=1 / weightb=1 / open_gop=0 / weightp=2 / keyint=240 / keyint_min=23 / scenecut=40 / intra_refresh=0 / rc_lookahead=40 / rc=crf / mbtree=1 / crf=23.0 / qcomp=0.60 / qpmin=0 / qpmax=81 / qpstep=4 / ip_ratio=1.40 / aq=1:1.00
Default                                  : Да
Forced                                   : Нет
Аудио
Идентификатор                            : 2
Формат                                   : AC-3
Формат/Информация                        : Audio Coding 3
Расширение режима                        : CM (complete main)
Параметр Endianness формата              : Big
Идентификатор кодека                     : A_AC3
Продолжительность                        : 24 м.
Вид битрейта                             : Постоянный
Битрейт                                  : 128 Кбит/сек
Каналы                                   : 2 канала
Расположение каналов                     : Front: L R
Частота                                  : 48,0 КГц
Битовая глубина                          : 16 бит
Метод сжатия                             : С потерями
Размер потока                            : 22,5 Мбайт (14%)
Язык                                     : Japanese
Default                                  : Да
Forced                                   : Нет

Информация о релизе

  • Данный релиз предназначен для просмотра на ПК. Воспроизведение на иных проигрывателях не гарантируется. Для просмотра рекомендуется Media Player Classic с установленным пакетом кодеков K-Lite.
  • Данный релиз содержит 10-битное видео (Hi10p). Для корректного воспроизведения обязательно используйте кодеки, поддерживающие 10-битное видео.
  • Данный релиз предназначен для просмотра с внешними субтитрами и внешними звуковыми дорожками.
    • Для просмотра с внешней звуковой дорожкой нужно:
      перекинуть файлы .mka из папки "RUS Sound [<автор(ы) озвучки>]" в одну папку с видео и переключить звуковую дорожку в плеере при просмотре.
    • Для просмотра с субтитрами нужно:
      перекинуть файлы .ass из папки "RUS Subtitles [<автор(ы) перевода>]" в одну папку с видео - плеер подгрузит их автоматически при открытии видео.
-

У меня мало друзей (ОВА-2&#41; / Boku wa Tomodachi ga Sukunai&#58; Relay Shousetsu wa Ketsumatsu ga Hanpanai (Сайто Хисаси&#41; &#91;OVA&#93; &#91;1 из 1&#93; &#91;без хардсаба&#93; &#91;RUS(ext&#41;, JAP+SUB&#93; &#91;2012 г., комедия, пародия,

- Страна: Япония
Год выпуска: 2012
Премьера: 26.09.2012
Жанр: комедия, пародия, этти, школа
Тип: OVA (1 эп.), 25 мин.-Перевод:
  • русские субтитры от Advantage (полные/вспомогательные)
Озвучивание:
  • двухголосая (муж./жен.) от Nutbar & MezIdA (Anifilm)
-Режиссер: Сайто Хисаси
Автор оригинала: Хирасака Ёми
Студия: AIC-Описание: Тринадцатый эпизод, дополнение к оригинальному сериалу. В нём рассказывается о том, как члены Клуба Соседей пытались написать совместный рассказ.© shikimori.org--Информационные ссылки: AniDB || World Art || MyAnimeList--MyAnimeList.NET: 7.31 (scored by 28,942 users)
Ranked: #2159--Качество: BDRip
Encode: Yousei-raws || Re-encoded: Razrushitel
Тип видео: без хардсаба || Формат: mkv
Видео: x264 (Hi10p), 1280x720, ~900 Kbps, 23.976 fps
Аудио JAP: AC3, 48000Hz, ~128 Kbps, 2ch (в составе контейнера)
Аудио RUS: AC3, 48000Hz, ~128 Kbps, 2ch (внешними файлами)-

Скриншоты

Подробные тех. данные

Общее
Уникальный идентификатор                 : 218942982084468716166771740496082692783 (0xA4B6E2709F81658A8B620D319622EAAF)
Полное имя                               : E:\*****\Boku wa Tomodachi ga Sukunai [Hi10] [BD 720p]\Boku wa Tomodachi ga Sukunai OVA-2 Add-on Disc [BD] [720p]\Boku wa Tomodachi ga Sukunai - Relay Shousetsu wa Ketsumatsu ga Hanpanai [Hi10] [BD 720p].mkv
Формат                                   : Matroska
Версия формата                           : Version 2
Размер файла                             : 181 Мбайт
Продолжительность                        : 24 м.
Общий поток                              : 1017 Кбит/сек
Дата кодирования                         : UTC 2015-07-06 07:35:57
Программа кодирования                    : mkvmerge v7.7.0 ('Six Voices') 32bit built on Feb 28 2015 23:23:00
Библиотека кодирования                   : libebml v1.3.1 + libmatroska v1.4.2
_STATISTICS_WRITING_APP                  : mkvmerge v7.7.0 ('Six Voices') 32bit built on Feb 28 2015 23:23:00
_STATISTICS_WRITING_DATE_UTC             : 2015-07-06 07:35:57
_STATISTICS_TAGS                         : BPS DURATION NUMBER_OF_FRAMES NUMBER_OF_BYTES
DURATION                                 : 00:24:55.520000000
NUMBER_OF_FRAMES                         : 46735
NUMBER_OF_BYTES                          : 23928320
Видео
Идентификатор                            : 1
Формат                                   : AVC
Формат/Информация                        : Advanced Video Codec
Профиль формата                          : High [email protected]
Параметр CABAC формата                   : Да
Параметр ReFrames формата                : 4 кадра
Идентификатор кодека                     : V_MPEG4/ISO/AVC
Продолжительность                        : 24 м.
Битрейт                                  : 869 Кбит/сек
Ширина                                   : 1280 пикселей
Высота                                   : 720 пикселей
Соотношение сторон                       : 16:9
Режим частоты кадров                     : Постоянный
Частота кадров                           : 23,976 кадра/сек
Цветовое пространство                    : YUV
Субдискретизация насыщенности            : 4:2:0
Битовая глубина                          : 10 бит
Тип развёртки                            : Прогрессивная
Бит/(Пиксели*Кадры)                      : 0.039
Размер потока                            : 155 Мбайт (85%)
Библиотека кодирования                   : x264 core 146 r2538 121396c
Настройки программы                      : cabac=1 / ref=3 / deblock=1:0:0 / analyse=0x3:0x113 / me=hex / subme=7 / psy=1 / psy_rd=1.00:0.00 / mixed_ref=1 / me_range=16 / chroma_me=1 / trellis=1 / 8x8dct=1 / cqm=0 / deadzone=21,11 / fast_pskip=1 / chroma_qp_offset=-2 / threads=3 / lookahead_threads=1 / sliced_threads=0 / nr=0 / decimate=1 / interlaced=0 / bluray_compat=0 / constrained_intra=0 / bframes=3 / b_pyramid=2 / b_adapt=1 / b_bias=0 / direct=1 / weightb=1 / open_gop=0 / weightp=2 / keyint=240 / keyint_min=23 / scenecut=40 / intra_refresh=0 / rc_lookahead=40 / rc=crf / mbtree=1 / crf=23.0 / qcomp=0.60 / qpmin=0 / qpmax=81 / qpstep=4 / ip_ratio=1.40 / aq=1:1.00
Default                                  : Да
Forced                                   : Нет
Аудио
Идентификатор                            : 2
Формат                                   : AC-3
Формат/Информация                        : Audio Coding 3
Расширение режима                        : CM (complete main)
Параметр Endianness формата              : Big
Идентификатор кодека                     : A_AC3
Продолжительность                        : 24 м.
Вид битрейта                             : Постоянный
Битрейт                                  : 128 Кбит/сек
Каналы                                   : 2 канала
Расположение каналов                     : Front: L R
Частота                                  : 48,0 КГц
Битовая глубина                          : 16 бит
Метод сжатия                             : С потерями
Размер потока                            : 22,8 Мбайт (13%)
Язык                                     : Japanese
Default                                  : Да
Forced                                   : Нет

Информация о релизе

  • Данный релиз предназначен для просмотра на ПК. Воспроизведение на иных проигрывателях не гарантируется. Для просмотра рекомендуется Media Player Classic с установленным пакетом кодеков K-Lite.
  • Данный релиз содержит 10-битное видео (Hi10p). Для корректного воспроизведения обязательно используйте кодеки, поддерживающие 10-битное видео.
  • Данный релиз предназначен для просмотра с внешними субтитрами и внешними звуковыми дорожками.
    • Для просмотра с внешней звуковой дорожкой нужно:
      перекинуть файлы .mka из папки "RUS Sound [<автор(ы) озвучки>]" в одну папку с видео и переключить звуковую дорожку в плеере при просмотре.
    • Для просмотра с субтитрами нужно:
      перекинуть файлы .ass из папки "RUS Subtitles [<автор(ы) перевода>]" в одну папку с видео - плеер подгрузит их автоматически при открытии видео.
-

У меня мало друзей (ТВ-2&#41; / Boku wa Tomodachi ga Sukunai Next (Китахата Тору&#41; &#91;TV&#93; &#91;12 из 12&#93; &#91;без хардсаба&#93; &#91;RUS(ext&#41;, JAP+SUB&#93; &#91;2013 г., комедия, пародия, этти, школа, BDRip&#93; &#91;720p&#93;

- Страна: Япония
Год выпуска: 2013
Выпуск: c 11.01.2013 по 29.03.2013
Жанр: комедия, пародия, этти, школа
Тип: ТВ (12 эп.), 25 мин.-Перевод:
  • русские субтитры от GMC (полные/вспомогательные)
    переводчики: Crash'n'Burn, Nerevar, редакторы: Nerevar, Матадор
Озвучивание:
  • двухголосая (жен./муж.) от Eladiel & Zendos (AniLibria)
-Режиссер: Китахата Тору
Автор оригинала: Хирасака Ёми
Студия: AIC-Описание: Пять девушек разного возраста и единственный парень по имени Кодака Хасэгава создали в католической академии Св. Хроники «клуб соседей», чтобы перестать беспокоиться и начать жить. Каждый из основателей считал, что для этого нужно овладеть умением сходиться с людьми и заводить друзей, а тренироваться лучше на таких же одиночках и мизантропах: и стыда меньше, и материал благодарней – уж если с этими подружишься, то дальше и делать нечего. В общем, новый клуб под крылом школьной церкви работает почти полгода – а где результат?
А он здесь, просто «большое видится на расстоянии». Ребятам, большую часть жизни проведшим в одиночестве, невдомек, что они на верном пути – к возрождению старой дружбы, к зарождению новой или к появлению каких-то иных, доселе неведомых отношений. Если подумать, герои сериала ничем не отличаются от окружающих – все мы разные, у каждого своих тараканов хватает. Ну а пока что «клуб соседей» решил «выйти в свет» и принять участие в грядущем школьном фестивале, чтобы резко поднять собственную популярность. Что же ждет наших героев – шумный успех или оглушительный провал? С таким набором ярких личностей третьего точно не дано!© Hollow, World Art--Информационные ссылки: AniDB || World Art || MyAnimeList--MyAnimeList.NET: 7.80 (scored by 106,485 users)
Ranked: #813--Качество: BDRip
Encode: Winter - RG Pantheon || Re-encoded: Razrushitel
Тип видео: без хардсаба || Формат: mkv
Видео: x264 (Hi10p), 1280x720, ~700 Kbps, 23.976 fps
Аудио JAP: AC3, 48000Hz, ~128 Kbps, 2ch (в составе контейнера)
Аудио RUS: AC3, 48000Hz, ~128 Kbps, 2ch (внешними файлами)-

Список эпизодов

01. Yeah, My Youth Is Seriously Wrong
02. Homo Game Club
03. My Little Sisters Are This Cute
04. A Man Is Among Them!
05. That Kind of Play Is Not Allowed! My Worldview Is Disturbed When You Are Around
06. Unbreakable Strange-Girl
07. He`s My Brother, but As Long As There`s Love, It Doesn`t Matter If He Gets More Sisters, Right?
08. My Childhoold Friend Is Too Much of a Battleground
09. Stray Cats Overheat
10. The Sad-Case King and the Stone-Cold Story
11. Dismay of I, the Chicken
12. I... Many Friends

Скриншоты

Отличия

BDRip vs BDRip с малыми размерами файлов

Подробные тех. данные

Общее
Уникальный идентификатор                 : 178674793511537762991957465125842027672 (0x866B837598538A9D8E5336013BFF8498)
Полное имя                               : E:\*****\Boku wa Tomodachi ga Sukunai [Hi10] [BD 720p]\Boku wa Tomodachi ga Sukunai Next [BD] [720p]\Boku wa Tomodachi ga Sukunai Next - 01 [Hi10] [BD 720p].mkv
Формат                                   : Matroska
Версия формата                           : Version 2
Размер файла                             : 132 Мбайт
Продолжительность                        : 24 м.
Общий поток                              : 759 Кбит/сек
Дата кодирования                         : UTC 2015-07-06 13:10:01
Программа кодирования                    : mkvmerge v7.7.0 ('Six Voices') 32bit built on Feb 28 2015 23:23:00
Библиотека кодирования                   : libebml v1.3.1 + libmatroska v1.4.2
_STATISTICS_WRITING_APP                  : mkvmerge v7.7.0 ('Six Voices') 32bit built on Feb 28 2015 23:23:00
_STATISTICS_WRITING_DATE_UTC             : 2015-07-06 13:10:01
_STATISTICS_TAGS                         : BPS DURATION NUMBER_OF_FRAMES NUMBER_OF_BYTES
DURATION                                 : 00:24:21.952000000
NUMBER_OF_FRAMES                         : 45686
NUMBER_OF_BYTES                          : 23391232
Видео
Идентификатор                            : 1
Формат                                   : AVC
Формат/Информация                        : Advanced Video Codec
Профиль формата                          : High [email protected]
Параметр CABAC формата                   : Да
Параметр ReFrames формата                : 4 кадра
Идентификатор кодека                     : V_MPEG4/ISO/AVC
Продолжительность                        : 24 м.
Битрейт                                  : 616 Кбит/сек
Ширина                                   : 1280 пикселей
Высота                                   : 720 пикселей
Соотношение сторон                       : 16:9
Режим частоты кадров                     : Постоянный
Частота кадров                           : 23,976 кадра/сек
Цветовое пространство                    : YUV
Субдискретизация насыщенности            : 4:2:0
Битовая глубина                          : 10 бит
Тип развёртки                            : Прогрессивная
Бит/(Пиксели*Кадры)                      : 0.028
Размер потока                            : 107 Мбайт (81%)
Библиотека кодирования                   : x264 core 146 r2538 121396c
Настройки программы                      : cabac=1 / ref=3 / deblock=1:0:0 / analyse=0x3:0x113 / me=hex / subme=7 / psy=1 / psy_rd=1.00:0.00 / mixed_ref=1 / me_range=16 / chroma_me=1 / trellis=1 / 8x8dct=1 / cqm=0 / deadzone=21,11 / fast_pskip=1 / chroma_qp_offset=-2 / threads=3 / lookahead_threads=1 / sliced_threads=0 / nr=0 / decimate=1 / interlaced=0 / bluray_compat=0 / constrained_intra=0 / bframes=3 / b_pyramid=2 / b_adapt=1 / b_bias=0 / direct=1 / weightb=1 / open_gop=0 / weightp=2 / keyint=240 / keyint_min=23 / scenecut=40 / intra_refresh=0 / rc_lookahead=40 / rc=crf / mbtree=1 / crf=23.0 / qcomp=0.60 / qpmin=0 / qpmax=81 / qpstep=4 / ip_ratio=1.40 / aq=1:1.00
Default                                  : Да
Forced                                   : Нет
Аудио
Идентификатор                            : 2
Формат                                   : AC-3
Формат/Информация                        : Audio Coding 3
Расширение режима                        : CM (complete main)
Параметр Endianness формата              : Big
Идентификатор кодека                     : A_AC3
Продолжительность                        : 24 м.
Вид битрейта                             : Постоянный
Битрейт                                  : 128 Кбит/сек
Каналы                                   : 2 канала
Расположение каналов                     : Front: L R
Частота                                  : 48,0 КГц
Битовая глубина                          : 16 бит
Метод сжатия                             : С потерями
Размер потока                            : 22,3 Мбайт (17%)
Язык                                     : Japanese
Default                                  : Да
Forced                                   : Нет

Информация о релизе

  • Данный релиз предназначен для просмотра на ПК. Воспроизведение на иных проигрывателях не гарантируется. Для просмотра рекомендуется Media Player Classic с установленным пакетом кодеков K-Lite.
  • Данный релиз содержит 10-битное видео (Hi10p). Для корректного воспроизведения обязательно используйте кодеки, поддерживающие 10-битное видео.
  • Данный релиз предназначен для просмотра с внешними субтитрами и внешними звуковыми дорожками.
    • Для просмотра с внешней звуковой дорожкой нужно:
      перекинуть файлы .mka из папки "RUS Sound [<автор(ы) озвучки>]" в одну папку с видео и переключить звуковую дорожку в плеере при просмотре.
    • Для просмотра с субтитрами нужно:
      перекинуть файлы .ass из папки "RUS Subtitles [<автор(ы) перевода>]" в одну папку с видео - плеер подгрузит их автоматически при открытии видео.

Создавать темы 23-Дек-2015 23:09

[Профиль]  [ЛС] 

Dragneel

Стаж: 6 лет 9 месяцев

Сообщений: 50

Симпатии: 9

Стоит посмотреть?

Создавать темы 24-Дек-2015 00:35

[Профиль]  [ЛС] 

Razrushitel ®

Стаж: 4 года 4 месяца

Сообщений: 148

Симпатии: 42

altair6500, У каждого свой вкус, а так мне понравилось :)

Создавать темы 24-Дек-2015 00:40

[Профиль]  [ЛС] 

Денис

Стаж: 6 лет 9 месяцев

Сообщений: 10

Буду на тя надеяться бро)) раздава1 хорошо позязя)

Создавать темы 24-Дек-2015 00:44

[Профиль]  [ЛС] 

Razrushitel ®

Стаж: 4 года 4 месяца

Сообщений: 148

Симпатии: 42

Денис, ОК) но сначала приконнектиться надо, а с этим иногда проблемы, особенно ночью...-P/s У кого не качает кидайте свои IP адресса с портом, будем пробовать добавлять :)

Создавать темы 24-Дек-2015 01:02

[Профиль]  [ЛС] 

zero-

Стаж: 1 год 6 месяцев

Сообщений: 1

ребят раздайте пожалуйста

Создавать темы 05-Авг-2016 14:42

[Профиль]  [ЛС] 
Показать сообщения:    
Ответить на тему

Текущее время: 23-Окт 12:45

Часовой пояс: UTC + 5



Вы не можете начинать темы
Вы не можете отвечать на сообщения
Вы не можете редактировать свои сообщения
Вы не можете удалять свои сообщения
Вы не можете голосовать в опросах
Вы не можете прикреплять файлы к сообщениям
Вы не можете скачивать файлы