Миропорядок. Фильм Владимира Соловьева 20.12.2015 / Миропорядок. Фильм Владимира Соловьева 20.12.2015 (Владимир Соловьев) [2015,Россия, Документальное кино, TVRip]

Ответить на тему
 

igor1968 ®

Стаж: 5 лет 9 месяцев

Сообщений: 366

Симпатии: 197

Миропорядок. Фильм Владимира Соловьева 20.12.2015 / Миропорядок. Фильм Владимира Соловьева 20.12.2015
Страна:
Жанр: Документальное кино
Год выпуска: 2015
Продолжительность: 01: 47:24
Перевод: Не требуется
Cубтитры: нет
Режиссер: Владимир Соловьев
В ролях: В.Соловьёв , В.Путин
Описание: На телеканале «Россия 1» прошла премьера нового документального фильма журналиста Владимира Соловьева «Миропорядок», основанного на интервью президента России Владимира Путина. «В ленте использованы несколько интервью Владимира Путина, а его создатели посетили много стран и поговорили с политиками всего мира.Документальное кино
Владимир Соловьев рассказывая о своем фильме отметил, что взял интервью после большой пресс-конференции президента России, прошедшей в четверг, 17 декабря. По словам журналиста, его фильм посвящен тому, какое будущее, какой «мировой порядок» ждет россиян.
«Мы делали его несколько месяцев, для этой цели объездили много стран, взяли интервью у разнообразных людей — очень разных, начиная от (сербского кинорежиссера) Эмира Кустурицы и заканчивая (экс-главой МВФ) Домиником Стросс-Каном, также участвует (бывший президент Пакистана) Первез Мушарраф. Это большой список как политических деятелей, так и таких уже людей, которые, скорее, относятся к категории философов, например, как Первез. Ну и, конечно, очень большое количество хроники, несколько больших интервью с Путиным, последнее из которых брали уже в этот четверг после большой пресс-конференции вечером в Ново-Огарево», — рассказал Владимир Соловьев.
По словам журналиста, при создании фильма возникали некоторые сложности — например, с находящимся уже более трех лет в посольстве Эквадора в Лондоне основателем сайта WikiLeaks Джулианом Ассфанжем «было чисто технологически не так легко связаться». «Но, как ни странно, главной проблемой было то, что многие политики боялись говорить. То есть кто-то был открыт, а некоторые все-таки привыкли оглядываться по сторонам. Например, Мушарраф не боится и говорит то, что думает, а некоторые большие действующие политики, находя вежливые предлоги, пытались по максимуму оказаться незадействованными», — отметил телеведущий.
Качество видео: TVRip
Формат видео: MPEG-TS
Видео: MPEG4 Video (H264) 704x576 (4:3) 25fps [V: h264 main L3.0, yuv420p, 704x576]
Аудио: MPEG Audio 48000Hz stereo 160kbps [A: mp2, 48000 Hz, stereo, 160 kb/s]

MediaInfo

General
ID : 10 (0xA)
Complete name : Россия 1 (_4)-Вести недели(20151220_192625)\Россия 1 (_4)-Вести недели(20151220_192625).TS
Format : MPEG-TS
File size : 980 MiB
Duration : 1h 47mn
Overall bit rate mode : Variable
Overall bit rate : 1 276 Kbps
Video
ID : 1508 (0x5E4)
Menu ID : 403 (0x193)
Format : AVC
Format/Info : Advanced Video Codec
Format profile : [email protected]
Format settings, CABAC : Yes
Format settings, ReFrames : 3 frames
Codec ID : 27
Duration : 1h 47mn
Bit rate : 1 051 Kbps
Width : 704 pixels
Height : 576 pixels
Display aspect ratio : 4:3
Frame rate : 25.000 fps
Standard : Component
Color space : YUV
Chroma subsampling : 4:2:0
Bit depth : 8 bits
Scan type : Interlaced
Scan order : Top Field First
Bits/(Pixel*Frame) : 0.104
Stream size : 807 MiB (82%)
Color range : Limited
Color primaries : BT.601 PAL
Transfer characteristics : BT.470 System B, BT.470 System G
Matrix coefficients : BT.601
Audio
ID : 2403 (0x963)
Menu ID : 403 (0x193)
Format : MPEG Audio
Format version : Version 1
Format profile : Layer 2
Codec ID : 3
Duration : 1h 47mn
Bit rate mode : Constant
Bit rate : 160 Kbps
Channel(s) : 2 channels
Sampling rate : 48.0 KHz
Compression mode : Lossy
Delay relative to video : -934ms
Stream size : 123 MiB (13%)
Menu
ID : 508 (0x1FC)
Menu ID : 403 (0x193)
Duration : 1h 47mn
List : 1508 (0x5E4) (AVC) / 2403 (0x963) (MPEG Audio)

Скриншот c названием фильма

Скриншоты




Создавать темы 24-Дек-2015 02:18

[Профиль]  [ЛС] 
Показать сообщения:    
Ответить на тему

Текущее время: 11-Дек 06:53

Часовой пояс: UTC + 5



Вы не можете начинать темы
Вы не можете отвечать на сообщения
Вы не можете редактировать свои сообщения
Вы не можете удалять свои сообщения
Вы не можете голосовать в опросах
Вы не можете прикреплять файлы к сообщениям
Вы не можете скачивать файлы