Марсианин | The Martian (Ридли Скотт / Ridley Scott) [2015., фантастика, приключения, WEB-DL 1080p] [Чистый звук]

Ответить на тему
 

Zab ®

Стаж: 6 лет 3 месяца

Сообщений: 476

Симпатии: 424

Марсианин / The Martian WEB-DL 1080p«Верните его домой»- Производство: США, Genre Films, International Traders, Mid Atlantic Films
Год выпуска: 2015
Жанр: Фантастика, Приключения
Режиссер: Ридли Скотт
Продолжительность: 02:21:51
Перевод: Дублированный (Чистый звук)-Продюсер: Марк Хаффам, Саймон Кинберг, Майкл Шефер
Актеры: Мэтт Дэймон, Джессика Честейн, Кристен Уиг, Джефф Дэниелс, Майкл Пенья, Шон Бин, Кейт Мара, Себастьян Стэн, Аксель Хенни, Чиветель Эджиофор-Описание:
Марсианская миссия «Арес-3» в процессе работы была вынуждена экстренно покинуть планету из-за надвигающейся песчаной бури. Инженер и биолог Марк Уотни получил повреждение скафандра во время песчаной бури. Сотрудники миссии, посчитав его погибшим, эвакуировались с планеты, оставив Марка одного. Очнувшись, Уотни обнаруживает, что связь с Землёй отсутствует, но при этом полностью функционирует жилой модуль. Главный герой начинает искать способ продержаться на имеющихся запасах еды, витаминов, воды и воздуха ещё 4 года до прилёта следующей миссии «Арес-4».- -Рейтинг MPAA: PG-13
Возраст: 16+-Дата мировой премьеры: 11 сентября 2015
Дата премьеры в России: 8 октября 2015, «Двадцатый Век Фокс СНГ»-Качество: WEB-DL 1080p
Формат: MKV
Видео кодек: XviD
Аудио кодек: AC3
Видео: MPEG4 Video (H264) 1916x796, 4261 Kbps 23.976fps
Аудио [RUS]: AC3, stereo, 48Khz, 192kbps
Аудио [ENG]: AC3, 6ch, 48Khz, 384kbps-

Скриншоты



MI

General
Unique ID                      : 232149395174530851079304096219787303590 (0xAEA658E061DB51028756113A0DB21AA6)
Complete name                  : D:\[Movies]\MaRSiaNiN.2015.D.WEB-DL.1080p.mkv
Format                         : Matroska
Format version                 : Version 4 / Version 2
File size                      : 4.89 GiB
Duration                       : 2h 21mn
Overall bit rate               : 4 935 Kbps
Encoded date                   : UTC 2015-12-23 20:24:42
Writing application            : mkvmerge v8.6.1 ('Flying') 64bit
Writing library                : libebml v1.3.3 + libmatroska v1.4.4
DURATION                       : 02:21:50.560000000
NUMBER_OF_FRAMES               : 265955
NUMBER_OF_BYTES                : 204253440
_STATISTICS_WRITING_APP        : mkvmerge v8.6.1 ('Flying') 64bit
_STATISTICS_WRITING_DATE_UTC   : 2015-12-23 20:24:42
_STATISTICS_TAGS               : BPS DURATION NUMBER_OF_FRAMES NUMBER_OF_BYTES
Video
ID                             : 1
Format                         : AVC
Format/Info                    : Advanced Video Codec
Format profile                 : [email protected]
Format settings, CABAC         : Yes
Format settings, ReFrames      : 5 frames
Codec ID                       : V_MPEG4/ISO/AVC
Duration                       : 2h 21mn
Bit rate                       : 4 261 Kbps
Width                          : 1 916 pixels
Height                         : 796 pixels
Display aspect ratio           : 2.40:1
Frame rate mode                : Constant
Frame rate                     : 23.976 fps
Color space                    : YUV
Chroma subsampling             : 4:2:0
Bit depth                      : 8 bits
Scan type                      : Progressive
Bits/(Pixel*Frame)             : 0.117
Stream size                    : 4.22 GiB (86%)
Language                       : English
Default                        : Yes
Forced                         : No
Color primaries                : BT.709
Transfer characteristics       : BT.709
Matrix coefficients            : BT.709
Audio #1
ID                             : 2
Format                         : AC-3
Format/Info                    : Audio Coding 3
Mode extension                 : CM (complete main)
Format settings, Endianness    : Big
Codec ID                       : A_AC3
Duration                       : 2h 21mn
Bit rate mode                  : Constant
Bit rate                       : 192 Kbps
Channel(s)                     : 2 channels
Channel positions              : Front: L R
Sampling rate                  : 48.0 KHz
Bit depth                      : 16 bits
Compression mode               : Lossy
Stream size                    : 195 MiB (4%)
Title                          : Дубляж, Чистый звук
Language                       : Russian
Default                        : Yes
Forced                         : No
Audio #2
ID                             : 3
Format                         : AC-3
Format/Info                    : Audio Coding 3
Mode extension                 : CM (complete main)
Format settings, Endianness    : Big
Codec ID                       : A_AC3
Duration                       : 2h 21mn
Bit rate mode                  : Constant
Bit rate                       : 384 Kbps
Channel(s)                     : 6 channels
Channel positions              : Front: L C R, Side: L R, LFE
Sampling rate                  : 48.0 KHz
Bit depth                      : 16 bits
Compression mode               : Lossy
Stream size                    : 390 MiB (8%)
Title                          : Оригинал
Language                       : English
Default                        : No
Forced                         : No
Menu
00:00:00.000                   : en:1
00:03:21.000                   : en:2
00:10:07.000                   : en:3
00:15:22.000                   : en:4
00:18:23.000                   : en:5
00:21:32.000                   : en:6
00:24:25.000                   : en:7
00:28:49.000                   : en:8
00:31:33.000                   : en:9
00:34:18.000                   : en:10
00:39:10.000                   : en:11
00:41:18.000                   : en:12
00:46:19.000                   : en:13
00:49:21.000                   : en:14
00:56:11.000                   : en:15
00:59:35.000                   : en:16
01:02:19.000                   : en:17
01:06:48.000                   : en:18
01:09:47.000                   : en:19
01:13:45.000                   : en:20
01:18:32.000                   : en:21
01:22:46.000                   : en:22
01:30:34.000                   : en:23
01:37:23.000                   : en:24
01:43:24.000                   : en:25
01:46:08.000                   : en:26
01:50:11.000                   : en:27
01:54:00.000                   : en:28
01:57:41.000                   : en:29
02:04:33.000                   : en:30
02:10:56.000                   : en:31
02:13:19.000                   : en:32

Создавать темы 24-Дек-2015 14:20

[Профиль]  [ЛС] 

Zab ®

Стаж: 6 лет 3 месяца

Сообщений: 476

Симпатии: 424

Oтсутствует какая-либо реклама.

Создавать темы 25-Дек-2015 02:17

[Профиль]  [ЛС] 

никитос1994

Стаж: 5 лет 3 месяца

Сообщений: 9

963562Oтсутствует какая-либо реклама.
А Стажер фильм без рекламы есть у тебя?

Создавать темы 27-Дек-2015 15:24

[Профиль]  [ЛС] 

Powered by GMC

Стаж: 1 год 10 месяцев

Сообщений: 202

Симпатии: 31

а когда i tunes обновиш???

Создавать темы 06-Фев-2016 18:02

[Профиль]  [ЛС] 
Показать сообщения:    
Ответить на тему

Текущее время: 21-Авг 09:45

Часовой пояс: UTC + 5



Вы не можете начинать темы
Вы не можете отвечать на сообщения
Вы не можете редактировать свои сообщения
Вы не можете удалять свои сообщения
Вы не можете голосовать в опросах
Вы не можете прикреплять файлы к сообщениям
Вы не можете скачивать файлы