Стажер | The Intern (Нэнси Майерс / Nancy Meyers) [2015, Мелодрама, комедия, WEB-DL 1080p ] [чистый звук]

Ответить на тему
 

Zab ®

Стаж: 6 лет 3 месяца

Сообщений: 476

Симпатии: 424

Стажёр | The Intern«Опыт всегда в моде»- Производство: США / Waverly Films
Год Выпуска: 2015
Жанр: мелодрама, комедия
Продолжительность: 02:01:36
Перевод: Дублированный (чистый звук)-Режиссер: Нэнси Майерс
Актеры: Роберт Де Ниро, Энн Хэтэуэй, Рене Руссо, Андерс Холм, ДжоДжо Кушнер, Эндрю Рэннеллс, Адам Дивайн, Илан Кригсфелд, Зак Перлман, Джейсон Орли и др.-Описание:
70-летний вдовец Бен Уитакер обнаруживает, что выход на пенсию — ещё не конец. Пользуясь случаем, он становится старшим стажёром в интернет-магазине модной одежды под руководством Джулс Остин.- -Дата мировой премьеры: 15 сентября 2015
Дата премьеры в России: 24 сентября 2015-Качество видео: WEB-DL 1080p
Формат: MKV
Видео кодек: AVC
Аудио кодек: AC3
Видео: MPEG-4 AVC, 4952 kb/s, 1912x1072
Аудио [RUS]: AC3, 448 kbps, 2 ch, 48 kHz - дублированный
Аудио [ENG]: AC3, 384 kbps, 2 ch, 48 kHz - Original

Скриншоты




MI

General
Unique ID                                : 253162984375051896050887325546545479805 (0xBE756AD05C640063963D459CEE81007D)
Complete name                            : D:\[Movies]\7tAj0r.2015.D.WEB-DL.1080p.mkv
Format                                   : Matroska
Format version                           : Version 4 / Version 2
File size                                : 5.01 GiB
Duration                                 : 2h 1mn
Overall bit rate                         : 5 901 Kbps
Movie name                               : 7tAj0r.2015.D.WEB-DL.720p.ELEKTRI4KA.uniongang.tv
Encoded date                             : UTC 2015-12-23 17:12:20
Writing application                      : mkvmerge v8.6.1 ('Flying') 64bit
Writing library                          : libebml v1.3.3 + libmatroska v1.4.4
DURATION                                 : 02:01:30.848000000
NUMBER_OF_FRAMES                         : 227839
NUMBER_OF_BYTES                          : 349960704
_STATISTICS_WRITING_APP                  : mkvmerge v8.6.1 ('Flying') 64bit
_STATISTICS_WRITING_DATE_UTC             : 2015-12-23 17:12:20
_STATISTICS_TAGS                         : BPS DURATION NUMBER_OF_FRAMES NUMBER_OF_BYTES
Video
ID                                       : 1
Format                                   : AVC
Format/Info                              : Advanced Video Codec
Format profile                           : [email protected]
Format settings, CABAC                   : Yes
Format settings, ReFrames                : 4 frames
Codec ID                                 : V_MPEG4/ISO/AVC
Duration                                 : 2h 1mn
Bit rate                                 : 4 952 Kbps
Width                                    : 1 912 pixels
Height                                   : 1 072 pixels
Display aspect ratio                     : 16:9
Frame rate mode                          : Constant
Frame rate                               : 23.976 fps
Color space                              : YUV
Chroma subsampling                       : 4:2:0
Bit depth                                : 8 bits
Scan type                                : Progressive
Bits/(Pixel*Frame)                       : 0.101
Stream size                              : 4.21 GiB (84%)
Title                                    : 7tAj0r.2015.D.WEB-DL.1080p.ELEKTRI4KA.uniongang.tv
Language                                 : English
Default                                  : Yes
Forced                                   : No
Color primaries                          : BT.709
Transfer characteristics                 : BT.709
Matrix coefficients                      : BT.709
Audio #1
ID                                       : 2
Format                                   : AC-3
Format/Info                              : Audio Coding 3
Mode extension                           : CM (complete main)
Format settings, Endianness              : Big
Codec ID                                 : A_AC3
Duration                                 : 2h 1mn
Bit rate mode                            : Constant
Bit rate                                 : 448 Kbps
Channel(s)                               : 2 channels
Channel positions                        : Front: L R
Sampling rate                            : 48.0 KHz
Bit depth                                : 16 bits
Compression mode                         : Lossy
Stream size                              : 390 MiB (8%)
Title                                    : 7tAj0r.2015.D.WEB-DL.1080p.ELEKTRI4KA.uniongang.tv
Language                                 : Russian
Default                                  : Yes
Forced                                   : No
Audio #2
ID                                       : 3
Format                                   : AC-3
Format/Info                              : Audio Coding 3
Mode extension                           : CM (complete main)
Format settings, Endianness              : Big
Codec ID                                 : A_AC3
Duration                                 : 2h 1mn
Bit rate mode                            : Constant
Bit rate                                 : 384 Kbps
Channel(s)                               : 6 channels
Channel positions                        : Front: L C R, Side: L R, LFE
Sampling rate                            : 48.0 KHz
Bit depth                                : 16 bits
Compression mode                         : Lossy
Stream size                              : 334 MiB (7%)
Title                                    : 7tAj0r.2015.D.WEB-DL.1080p.ELEKTRI4KA.uniongang.tv
Language                                 : English
Default                                  : No
Forced                                   : No
Text
ID                                       : 4
Format                                   : UTF-8
Codec ID                                 : S_TEXT/UTF8
Codec ID/Info                            : UTF-8 Plain Text
Title                                    : 7tAj0r.2015.D.WEB-DL.1080p.ELEKTRI4KA.uniongang.tv
Language                                 : Russian
Default                                  : Yes
Forced                                   : Yes
Menu
00:00:00.000                             : en:1
00:09:30.000                             : en:2
00:19:54.000                             : en:3
00:29:39.000                             : en:4
00:30:29.000                             : en:5
00:41:17.000                             : en:6
00:50:18.000                             : en:7
01:00:33.000                             : en:8
01:10:18.000                             : en:9
01:19:15.000                             : en:10
01:30:58.000                             : en:11
01:42:48.000                             : en:12
01:51:10.000                             : en:13
01:56:41.000                             : en:14

Создавать темы 24-Дек-2015 15:23

[Профиль]  [ЛС] 
Показать сообщения:    
Ответить на тему

Текущее время: 17-Авг 02:49

Часовой пояс: UTC + 5



Вы не можете начинать темы
Вы не можете отвечать на сообщения
Вы не можете редактировать свои сообщения
Вы не можете удалять свои сообщения
Вы не можете голосовать в опросах
Вы не можете прикреплять файлы к сообщениям
Вы не можете скачивать файлы