Монстры на каникулах 2 / Hotel Transylvania 2 (Дженнди Тартаковски) [2015, США, мультфильм, комедия, семейный, WEB-DLRip-AVC] [Лицензия]

Ответить на тему
 

Zab ®

Стаж: 6 лет 5 месяцев

Сообщений: 476

Симпатии: 424

- -Монстры на каникулах 2 / Hotel Transylvania 2- - Страна: США
Жанр: мультфильм, комедия, семейный
Год выпуска: 2015
Продолжительность: 01:29:49-Перевод: Профессиональный (дублированный) [Лицензия]
Cубтитры: нет
Оригинальная аудиодорожка: английский-Режиссер: Дженнди Тартаковски-В ролях: Адам Сэндлер, Селена Гомес, Стив Бушеми, Энди Сэмберг,
Кевин Джеймс, Фрэн Дрешер, Мэл Брукс, Дэвид Спейд, Кигэн-Майкл Ки, Крис Кэттэн-Описание: Граф Дракула выдает свою очаровательную дочь
замуж за парня из мира людей, и у молодой «смешанной» пары рождается сын.
Станет ли этот ребенок человеком или вампиром?-Качество видео: WEB-DLRip-AVC
Формат видео: MKV
Видео: MPEG-4 AVC, 2132 Kbps Кбит/с, 1024x544
Аудио [Rus]: Dolby AC3 48000Hz stereo 384kbps
-

MediaInfo

General
Unique ID : 252478919390753344103473717045961737937 (0xBDF1ABCE65A1D91A8B24C767F9D4C6D1)
Complete name : D:\[Movies]\M0ns3.Na.Kan1ku1aH.2015.WEB-DLRip-AVC.mkv
Format : Matroska
Format version : Version 4 / Version 2
File size : 1.58 GiB
Duration : 1h 29mn
Overall bit rate : 2 515 Kbps
Movie name : M0ns3.Na.Kan1ku1aH.2015.WEB-DLRip-AVC.by.White Smoke.R.G.Resident.mkv
Encoded date : UTC 2015-12-24 01:42:10
Writing application : mkvmerge v6.8.0 ('Theme for Great Cities') 64bit built on Mar 2 2014 21:34:26
Writing library : libebml v1.3.0 + libmatroska v1.4.1
Video
ID : 1
Format : AVC
Format/Info : Advanced Video Codec
Format profile : [email protected]
Format settings, CABAC : Yes
Format settings, ReFrames : 12 frames
Codec ID : V_MPEG4/ISO/AVC
Duration : 1h 29mn
Bit rate : 2 132 Kbps
Width : 1 024 pixels
Height : 544 pixels
Display aspect ratio : 1.882
Frame rate mode : Constant
Frame rate : 23.976 fps
Color space : YUV
Chroma subsampling : 4:2:0
Bit depth : 8 bits
Scan type : Progressive
Bits/(Pixel*Frame) : 0.160
Stream size : 1.31 GiB (83%)
Writing library : x264 core 146 r2538 121396c
Encoding settings : cabac=1 / ref=12 / deblock=1:-2:-2 / analyse=0x3:0x113 / me=umh / subme=9 / psy=1 / psy_rd=1.00:0.00 / mixed_ref=1 / me_range=32 / chroma_me=1 / trellis=2 / 8x8dct=1 / cqm=0 / deadzone=21,11 / fast_pskip=0 / chroma_qp_offset=-2 / threads=6 / lookahead_threads=1 / sliced_threads=0 / nr=0 / decimate=0 / interlaced=0 / bluray_compat=0 / constrained_intra=0 / bframes=10 / b_pyramid=2 / b_adapt=2 / b_bias=0 / direct=3 / weightb=1 / open_gop=0 / weightp=2 / keyint=250 / keyint_min=23 / scenecut=40 / intra_refresh=0 / rc_lookahead=60 / rc=2pass / mbtree=0 / bitrate=2132 / ratetol=1.0 / qcomp=0.60 / qpmin=0 / qpmax=69 / qpstep=4 / cplxblur=20.0 / qblur=0.5 / vbv_maxrate=14000 / vbv_bufsize=14000 / nal_hrd=none / filler=0 / ip_ratio=1.40 / pb_ratio=1.30 / aq=1:0.80
Default : Yes
Forced : No
Audio
ID : 2
Format : AC-3
Format/Info : Audio Coding 3
Mode extension : CM (complete main)
Format settings, Endianness : Big
Codec ID : A_AC3
Duration : 1h 29mn
Bit rate mode : Constant
Bit rate : 384 Kbps
Channel(s) : 6 channels
Channel positions : Front: L C R, Side: L R, LFE
Sampling rate : 48.0 KHz
Bit depth : 16 bits
Compression mode : Lossy
Stream size : 247 MiB (15%)
Default : Yes
Forced : No

Скриншот c названием фильма

Скриншоты




Оформление от ruhal

Создавать темы 24-Дек-2015 16:03

[Профиль]  [ЛС] 
Показать сообщения:    
Ответить на тему

Текущее время: 22-Сен 20:28

Часовой пояс: UTC + 5



Вы не можете начинать темы
Вы не можете отвечать на сообщения
Вы не можете редактировать свои сообщения
Вы не можете удалять свои сообщения
Вы не можете голосовать в опросах
Вы не можете прикреплять файлы к сообщениям
Вы не можете скачивать файлы