Монстры на каникулах 2 / Hotel Transylvania 2 (Дженнди Тартаковски) [2015, США, мультфильм, комедия, семейный, WEB-DL 1080p] [Лицензия]

Ответить на тему
 

Zab ®

Стаж: 6 лет 7 месяцев

Сообщений: 476

Симпатии: 424

- -Монстры на каникулах 2 / Hotel Transylvania 2- - Страна: США
Жанр: мультфильм, комедия, семейный
Год выпуска: 2015
Продолжительность: 01:29:49-Перевод: Профессиональный (дублированный) [Лицензия]
Cубтитры: нет
Оригинальная аудиодорожка: английский-Режиссер: Дженнди Тартаковски-В ролях: Адам Сэндлер, Селена Гомес, Стив Бушеми, Энди Сэмберг,
Кевин Джеймс, Фрэн Дрешер, Мэл Брукс, Дэвид Спейд, Кигэн-Майкл Ки, Крис Кэттэн-Описание: Граф Дракула выдает свою очаровательную дочь
замуж за парня из мира людей, и у молодой «смешанной» пары рождается сын.
Станет ли этот ребенок человеком или вампиром?-Качество видео: WEB-DL 1080p
Формат видео: MKV
Видео: MPEG-4 AVC, 4997Кбит/с, 1920x1028
Аудио [Rus]: Dolby AC3 48000Hz stereo 384kbps
Аудио [Eng]: Dolby AC3 48000Hz stereo 384kbps
-

MediaInfo

General
Unique ID : 221295971825332056635701413013188320305 (0xA67C0DCA7E8BB976BDF8C79F6FF91C31)
Complete name : D:\[Movies]\M0HCtRy.2.2015.D.WEB-DL.1080p.mkv
Format : Matroska
Format version : Version 4 / Version 2
File size : 3.69 GiB
Duration : 1h 29mn
Overall bit rate : 5 882 Kbps
Encoded date : UTC 2015-12-23 19:05:18
Writing application : mkvmerge v8.3.0 ('Over the Horizon') 64bit
Writing library : libebml v1.3.1 + libmatroska v1.4.2
DURATION : 01:29:16.160000000
NUMBER_OF_FRAMES : 167380
NUMBER_OF_BYTES : 257095680
_STATISTICS_WRITING_APP : mkvmerge v8.3.0 ('Over the Horizon') 64bit
_STATISTICS_WRITING_DATE_UTC : 2015-12-23 19:05:18
_STATISTICS_TAGS : BPS DURATION NUMBER_OF_FRAMES NUMBER_OF_BYTES
Video
ID : 1
Format : AVC
Format/Info : Advanced Video Codec
Format profile : [email protected]
Format settings, CABAC : Yes
Format settings, ReFrames : 4 frames
Codec ID : V_MPEG4/ISO/AVC
Duration : 1h 29mn
Bit rate : 4 997 Kbps
Width : 1 920 pixels
Height : 1 028 pixels
Display aspect ratio : 1.85:1
Frame rate mode : Constant
Frame rate : 23.976 fps
Color space : YUV
Chroma subsampling : 4:2:0
Bit depth : 8 bits
Scan type : Progressive
Bits/(Pixel*Frame) : 0.106
Stream size : 3.14 GiB (85%)
Language : English
Default : Yes
Forced : No
Color primaries : BT.709
Transfer characteristics : BT.709
Matrix coefficients : BT.709
Audio #1
ID : 2
Format : AC-3
Format/Info : Audio Coding 3
Mode extension : CM (complete main)
Format settings, Endianness : Big
Codec ID : A_AC3
Duration : 1h 29mn
Bit rate mode : Constant
Bit rate : 384 Kbps
Channel(s) : 6 channels
Channel positions : Front: L C R, Side: L R, LFE
Sampling rate : 48.0 KHz
Bit depth : 16 bits
Compression mode : Lossy
Stream size : 247 MiB (7%)
Language : Russian
Default : Yes
Forced : No
Audio #2
ID : 3
Format : AC-3
Format/Info : Audio Coding 3
Mode extension : CM (complete main)
Format settings, Endianness : Big
Codec ID : A_AC3
Duration : 1h 29mn
Bit rate mode : Constant
Bit rate : 384 Kbps
Channel(s) : 6 channels
Channel positions : Front: L C R, Side: L R, LFE
Sampling rate : 48.0 KHz
Bit depth : 16 bits
Compression mode : Lossy
Stream size : 247 MiB (7%)
Language : English
Default : No
Forced : No
Menu
00:00:00.000 : en:1
00:05:45.000 : en:2
00:09:16.000 : en:3
00:13:07.000 : en:4
00:19:26.000 : en:5
00:22:40.000 : en:6
00:30:02.000 : en:7
00:36:09.000 : en:8
00:39:57.000 : en:9
00:45:50.000 : en:10
00:51:18.000 : en:11
00:56:50.000 : en:12
01:03:57.000 : en:13
01:08:27.000 : en:14
01:13:24.000 : en:15
01:18:30.000 : en:16

Скриншот c названием фильма

Скриншоты




Оформление от ruhal

Создавать темы 24-Дек-2015 16:04

[Профиль]  [ЛС] 

Vohaha

Стаж: 5 лет 11 месяцев

Сообщений: 62

Симпатии: 11

Дайте раздачи

Создавать темы 19-Фев-2016 11:36

[Профиль]  [ЛС] 

vasilalex

Стаж: 3 года 10 месяцев

Сообщений: 7

Дайте раздачи

Создавать темы 11-Мар-2016 22:31

[Профиль]  [ЛС] 
Показать сообщения:    
Ответить на тему

Текущее время: 19-Дек 01:23

Часовой пояс: UTC + 5



Вы не можете начинать темы
Вы не можете отвечать на сообщения
Вы не можете редактировать свои сообщения
Вы не можете удалять свои сообщения
Вы не можете голосовать в опросах
Вы не можете прикреплять файлы к сообщениям
Вы не можете скачивать файлы