Зажги меня / Plush (Кэтрин Хардвик) [2013, США, триллер, HDRip] (MVO : [Официальный звук])

Ответить на тему
 

lucky999 ®

Стаж: 2 года 3 месяца

Сообщений: 32

Симпатии: 43

Зажги меня / Plush
Страна: США
Жанр: триллер
Год выпуска: 2013
Продолжительность: 01:39:22--Перевод: Профессиональный (многоголосый) [Официальный звук]
Режиссер: Кэтрин Хардвик--В ролях: Эмили Браунинг, Завьер Сэмюэл, Кэм Жиганде, Доун Оливери, Томас Деккер, Фрэнсис Фишер, Элизабет Пенья, Брэндон Джей МакЛарен, Марлин Форте, Брэдли Джеймс Меткалф
Описание: После того, как брат Хейли, восходящей звезды рока, погиб от передозировки, ее жизнь пошла по наклонной. В результате ее второй альбом становится творческим и коммерческим провалом. Она находит вдохновение после того, как в группу пришел гитарист Энцо, который своим позитивом и свежими идеями вытащил девушку из состояния полузабытья. Но вскоре их сотрудничество выходит за грань профессиональных отношений и выливается в ночь страстной любви...-Доп. информация:
IMDB рейтинг: 5.3/10
КиноПоиск рейтинг: 6.2/10-Качество видео: HDRip
Формат видео: AVI
Видео: XviD, 1900 kb/s, 720x384
Аудио: AC3, 192 kb/s (2 ch)

MediaInfo

General
Complete name : D:\torrent\Zazhgi.menya.2013.P.HDRip.avi
Format : AVI
Format/Info : Audio Video Interleave
File size : 1.46 GiB
Duration : 1h 39mn
Overall bit rate : 2 101 Kbps
Writing application : VirtualDubMod 1.5.10.2 (build 2540/release)
Writing library : VirtualDubMod build 2540/release
Video
ID : 0
Format : MPEG-4 Visual
Format profile : Advanced [email protected]
Format settings, BVOP : 2
Format settings, QPel : No
Format settings, GMC : No warppoints
Format settings, Matrix : Default (MPEG)
Codec ID : XVID
Codec ID/Hint : XviD
Duration : 1h 39mn
Bit rate : 1 900 Kbps
Width : 720 pixels
Height : 384 pixels
Display aspect ratio : 1.85:1
Frame rate : 23.976 fps
Color space : YUV
Chroma subsampling : 4:2:0
Bit depth : 8 bits
Scan type : Progressive
Compression mode : Lossy
Bits/(Pixel*Frame) : 0.287
Stream size : 1.32 GiB (90%)
Writing library : XviD 1.2.1 (UTC 2008-12-04)
Audio
ID : 1
Format : AC-3
Format/Info : Audio Coding 3
Mode extension : CM (complete main)
Format settings, Endianness : Big
Codec ID : 2000
Duration : 1h 39mn
Bit rate mode : Constant
Bit rate : 192 Kbps
Channel(s) : 2 channels
Channel positions : Front: L R
Sampling rate : 48.0 KHz
Compression mode : Lossy
Stream size : 136 MiB (9%)
Alignment : Split accross interleaves
Interleave, duration : 42 ms (1.00 video frame)
Interleave, preload duration : 500 ms

Скриншоты




Создавать темы 24-Дек-2015 16:23

[Профиль]  [ЛС] 
Показать сообщения:    
Ответить на тему

Текущее время: 14-Дек 01:40

Часовой пояс: UTC + 5



Вы не можете начинать темы
Вы не можете отвечать на сообщения
Вы не можете редактировать свои сообщения
Вы не можете удалять свои сообщения
Вы не можете голосовать в опросах
Вы не можете прикреплять файлы к сообщениям
Вы не можете скачивать файлы