Джой / Joy (2015) [Дэвид О. Расселл / David Owen Russell] [драма, комедия, биография, история] DVDScr

Ответить на тему
 

Zab ®

Стаж: 6 лет 7 месяцев

Сообщений: 476

Симпатии: 424

Джой / Joy (2015) DVDScr- Производство: США
Год Выпуска: 2015
Жанр: драма, комедия, биография, история
Продолжительность: 01:52:54
Перевод: Двуголосый закадровый, любительский
Озвучка / Автор перевода: Паровоз Продакшн-Режиссер: Дэвид О. Расселл
Продюсер: Джон Дэвис, Меган Эллисон, Джон Гордон
Актеры: Дженнифер Лоуренс, Роберт Де Ниро, Брэдли Купер, Эдгар Рамирес, Дайан Лэдд, Вирджиния Мэдсен, Изабелла Росселлини, Даша Поланко, Сьюзэн Луччи, Лаура Райт-Описание:
История, основанная на непростой жизни матери-одиночки в Лонг-Айленде, которая стала одним из самых успешных предпринимателей страны.-Дата мировой премьеры: 24 декабря 2015
Дата премьеры в России: 21 января 2016, «Двадцатый Век Фокс СНГ»-Качество: DVDScr
Видео кодек: Xvid
Аудио кодек: AC3
Видео: 720x400 (1.80:1), 29.970 fps, XviD build 50 ~1593 kbps avg, 0.18 bit/pixel
Аудио: 48 kHz, AC3 Dolby Digital, 2/0 (L,R) 2 ch, ~192 kbps
Субтитры: нет

MI

General
Complete name                            : D:\[Movies]\Dzhoy.avi
Format                                   : AVI
Format/Info                              : Audio Video Interleave
File size                                : 1.42 GiB
Duration                                 : 1h 53mn
Overall bit rate                         : 1 797 Kbps
Writing application                      : VirtualDubMod 1.5.10.3 | www.virtualdub-fr.org || (build 2550/release)
Writing library                          : VirtualDubMod build 2550/release
Video
ID                                       : 0
Format                                   : MPEG-4 Visual
Format profile                           : Advanced [email protected]
Format settings, BVOP                    : 2
Format settings, QPel                    : Yes
Format settings, GMC                     : No warppoints
Format settings, Matrix                  : Default (H.263)
Codec ID                                 : XVID
Codec ID/Hint                            : XviD
Duration                                 : 1h 53mn
Bit rate                                 : 1 593 Kbps
Width                                    : 720 pixels
Height                                   : 400 pixels
Display aspect ratio                     : 16:9
Frame rate                               : 29.970 fps
Color space                              : YUV
Chroma subsampling                       : 4:2:0
Bit depth                                : 8 bits
Scan type                                : Progressive
Compression mode                         : Lossy
Bits/(Pixel*Frame)                       : 0.185
Stream size                              : 1.26 GiB (89%)
Writing library                          : XviD 1.2.1 (UTC 2008-12-04)
Audio
ID                                       : 1
Format                                   : AC-3
Format/Info                              : Audio Coding 3
Mode extension                           : CM (complete main)
Format settings, Endianness              : Big
Codec ID                                 : 2000
Duration                                 : 1h 53mn
Bit rate mode                            : Constant
Bit rate                                 : 192 Kbps
Channel(s)                               : 2 channels
Channel positions                        : Front: L R
Sampling rate                            : 48.0 KHz
Bit depth                                : 16 bits
Compression mode                         : Lossy
Stream size                              : 155 MiB (11%)
Alignment                                : Split accross interleaves
Interleave, duration                     : 33 ms (1.00 video frame)
Interleave, preload duration             : 500 ms

Скриншоты





Последний раз редактировалось: Zab (2015-12-24 19:07), всего редактировалось 1 раз

Создавать темы 24-Дек-2015 19:05

[Профиль]  [ЛС] 

Zab ®

Стаж: 6 лет 7 месяцев

Сообщений: 476

Симпатии: 424

Oтсутствует какая-либо реклама.

Создавать темы 24-Дек-2015 19:05

[Профиль]  [ЛС] 

Топик был перенесен из форума Фильмы за 2015 в форум CamRip, DVDScr и т.п.
mp1988

Создавать темы 24-Дек-2015 19:44

 
Показать сообщения:    
Ответить на тему

Текущее время: 16-Дек 10:31

Часовой пояс: UTC + 5



Вы не можете начинать темы
Вы не можете отвечать на сообщения
Вы не можете редактировать свои сообщения
Вы не можете удалять свои сообщения
Вы не можете голосовать в опросах
Вы не можете прикреплять файлы к сообщениям
Вы не можете скачивать файлы