Мамочки / Сезон: 1 / Серии: 1-20 из 20 (Валерия Ивановская, Александр Богданенко) [2015, Комедия, SATRip]

Ответить на тему
 

Sunnat1999 ®

Стаж: 4 года 8 месяцев

Сообщений: 756

Симпатии: 416

МамочкиСезон-1 серии 1-20 из 20-- Год выпуска: 2015
Производство: Россия, Yellow, Black & White,
Жанр: Комедия
Продолжительность: ~00:25:00 серия
Субтитры: нет-Режиссёр: Валерия Ивановская, Александр Богданенко-В ролях: Елена Николаева (II), Александра Булычёва, Светлана Колпакова, Сергей Лавыгин, Владимир Жеребцов, Юлиана Бажанова, Виктор Добронравов, Ксения Зуева, Анна Потебня, Константин Соловьёв, Дмитрий Мазуров, Денис Жариков, Александр Ратников, Артём Падалка, Роман Полянский, Всеволод Макаров, Юлия Подозёрова, Антонина Комиссарова, Макс Бирюков, Вадим Норштейн, Анжелика Каширина, Александр Присмотров-Белов-Описание: Сериал о трёх подругах и о том, как резко меняется жизнь после тридцати, когда на смену ночным вечеринкам приходят подгузники. Аня — новоиспечённая мама десятимесячного сына, которая только начинает сталкиваться с проблемами материнства и супружеской жизни. Иногда, кажется, что если бы не советы подруг, она бы сошла с ума от беспомощности. Юля — мама со стажем. Мать троих детей, которую настолько сильно поглощает семейный быт, что на себя давно нет ни сил, ни времени. Считает, что знает абсолютно всё о детях, мужчинах и отношениях. Вика — одинокая девушка «в поиске».-Доп. информация:
 
-Качество: SATRip
Формат: AVI
Видео кодек: XviD
Аудио кодек: MP3
Видео: XviD, ~ 1800 Кбит/с, 720x400
Аудио: MP3, 2 ch, 128 Кбит/с
-ВНИМАНИЕ! РАЗДАЧА ВЕДЁТСЯ ПУТЁМ ДОБАВЛЕНИЯ НОВЫХ СЕРИЙ!
ДОБАВЛЕНЫ ЗАКЛЮЧИТЕЛЬНЫЕ 19-20 СЕРИИ, ПЕРЕКАЧАЙТЕ ПОЖАЛУЙСТА ТОРРЕНТ!

Как обновить торрент

Когда раздача ведётся путём добавления новых серий, при каждом добавлении создётся новый торрент. Чтобы начать докачку новой серии, пользователям необходимо сделать следующее:
(1) остановить скачивание,
(2) удалить старый торрент у себя из клиента (старые серии удалять не надо),
(3) скачать новый торрент и запустить его у себя в клиенте вместо старого, при этом указать клиенту путь в старую папку, куда и должно происходить скачивание новых серий.
Ваш клиент при этом должен произвести хеширование (проверку) старой папки (если не производит сам - помогите ему сделать это), и будет докачивать только те серии, которых у вас ещё нет. Старые серии при этом не удаляются, а продолжают раздаваться!
Eсли вы уже удалили старые серии, то предотвратить повторную закачку старых серий можно, отжав галочку в соответсвующих местах при запуске нового торрента. По возможности, желательно не удалять старые серии как можно дольше, чтобы релизёр не столько продолжал раздавать старые серии, а смог сконцентрироваться на новых.

MI

General
Complete name : \Mamochki.2015.SATRip\01.serija.avi
Format : AVI
Format/Info : Audio Video Interleave
File size : 378 MiB
Duration : 27mn 13s
Overall bit rate : 1 939 Kbps
Writing application : VirtualDubMod 1.5.10.3 | www.virtualdub-fr.org || (build 2550/release)
Writing library : VirtualDubMod build 2550/release
Video
ID : 0
Format : MPEG-4 Visual
Format profile : Advanced [email protected]
Format settings, BVOP : 2
Format settings, QPel : No
Format settings, GMC : No warppoints
Format settings, Matrix : Default (MPEG)
Codec ID : XVID
Codec ID/Hint : XviD
Duration : 27mn 13s
Bit rate : 1 801 Kbps
Width : 720 pixels
Height : 400 pixels
Display aspect ratio : 16:9
Frame rate : 25.000 fps
Color space : YUV
Chroma subsampling : 4:2:0
Bit depth : 8 bits
Scan type : Progressive
Compression mode : Lossy
Bits/(Pixel*Frame) : 0.250
Stream size : 351 MiB (93%)
Writing library : XviD 1.2.1 (UTC 2008-12-04)
Audio
ID : 1
Format : MPEG Audio
Format version : Version 1
Format profile : Layer 3
Codec ID : 55
Codec ID/Hint : MP3
Duration : 27mn 13s
Bit rate mode : Constant
Bit rate : 128 Kbps
Channel(s) : 2 channels
Sampling rate : 48.0 KHz
Compression mode : Lossy
Stream size : 24.9 MiB (7%)
Alignment : Aligned on interleaves
Interleave, duration : 40 ms (1.00 video frame)
Interleave, preload duratio : 504 ms
Writing library : LAME3.99r
Encoding settings : -m s -V 4 -q 2 -lowpass 17 -b 128
Скриншоты


Последний раз редактировалось: Sunnat1999 (2016-02-06 12:40), всего редактировалось 4 раз(а)

Создавать темы 25-Дек-2015 08:32

[Профиль]  [ЛС] 

Sunnat1999 ®

Стаж: 4 года 8 месяцев

Сообщений: 756

Симпатии: 416

ДОБАВЛЕНА 17 СЕРИЯ, ПЕРЕКАЧАЙТЕ ПОЖАЛУЙСТА ТОРРЕНТ!

Создавать темы 28-Дек-2015 21:12

[Профиль]  [ЛС] 

Sunnat1999 ®

Стаж: 4 года 8 месяцев

Сообщений: 756

Симпатии: 416

ДОБАВЛЕНА 18 СЕРИЯ, ПЕРЕКАЧАЙТЕ ПОЖАЛУЙСТА ТОРРЕНТ!

Создавать темы 29-Дек-2015 22:07

[Профиль]  [ЛС] 

Sunnat1999 ®

Стаж: 4 года 8 месяцев

Сообщений: 756

Симпатии: 416

ДОБАВЛЕНЫ ЗАКЛЮЧИТЕЛЬНЫЕ 19-20 СЕРИИ, ПЕРЕКАЧАЙТЕ ПОЖАЛУЙСТА ТОРРЕНТ!

Создавать темы 30-Дек-2015 20:19

[Профиль]  [ЛС] 

Григорий Владимирович

Стаж: 4 года 10 месяцев

Сообщений: 11

Встанте на раздачу пожалуйста!!!

Создавать темы 15-Ноя-2016 19:56

[Профиль]  [ЛС] 
Показать сообщения:    
Ответить на тему

Текущее время: 20-Ноя 08:59

Часовой пояс: UTC + 5



Вы не можете начинать темы
Вы не можете отвечать на сообщения
Вы не можете редактировать свои сообщения
Вы не можете удалять свои сообщения
Вы не можете голосовать в опросах
Вы не можете прикреплять файлы к сообщениям
Вы не можете скачивать файлы