Временно недоступен / Сезон: 1 / Серии: 1-8 из 8 (Михаил Хлебородов) [2015, комедия, WEB-DLRip]

Ответить на тему
 

Sunnat1999 ®

Стаж: 4 года 7 месяцев

Сообщений: 756

Симпатии: 416

Временно недоступенСезон: 1 Серии: 1-8 из 8-- Год выпуска: 2015
Производство: Россия
Жанр: комедия
Продолжительность: ~00:45:00 серия
Субтитры: нет-Режиссёр: Михаил Хлебородов-В ролях: Сергей Безруков, Дмитрий Дюжев, Олег Тактаров, Валерия Ланская, Екатерина Федулова, Сергей Астахов, Ричард Бондарев, Вера Шпак, Евгения Нохрина, Александр Тютин-Описание: Если вы всего лишь мелкий чиновник или следователь следственного отдела, вам наверняка кажется, что ничего экстраординарного в вашей жизни произойти не может, потому что этого не может быть никогда. Но стоит сделать только один неверный шаг, совершить необдуманный поступок, сесть в случайную машину, обнаружить у себя чужие документы, и Ваша жизнь независимо от вас может изменить привычное русло и потечь в неизвестном направлении.-Доп. информация:
 
-Качество: WEB-DLRip
Формат: AVI
Видео кодек: XviD
Аудио кодек: AC3
Видео: XviD, ~ 1790 Кбит/с, 720x400
Аудио: AC3, 2 ch, 192 Кбит/с

MI

Общее
Полное имя : \Vremenno.nedostupen.2015.WEB-DLRip\Vremenno.nedostupen.(01.seriya).2015.WEB-DLRip.avi
Формат : AVI
Формат/Информация : Audio Video Interleave
Размер файла : 699 Мбайт
Продолжительность : 50 м.
Общий поток : 1945 Кбит/сек
Программа кодирования : VirtualDubMod 1.5.10.2 (build 2540/release)
Библиотека кодирования : VirtualDubMod build 2540/release
Видео
Идентификатор : 0
Формат : MPEG-4 Visual
Профиль формата : Advanced [email protected]
Параметр BVOP формата : 1
Параметр QPel формата : Нет
Параметр GMC формата : Без точки перехода
Параметр матрицы формата : Выборочная
Идентификатор кодека : XVID
Идентификатор кодека/Подсказка : XviD
Продолжительность : 50 м.
Битрейт : 1743 Кбит/сек
Ширина : 720 пикселей
Высота : 400 пикселей
Соотношение сторон : 16:9
Частота кадров : 25,000 кадров/сек
Цветовое пространство : YUV
Субдискретизация насыщенности : 4:2:0
Битовая глубина : 8 бит
Тип развёртки : Прогрессивная
Метод сжатия : С потерями
Бит/(Пиксели*Кадры) : 0.242
Размер потока : 627 Мбайт (90%)
Библиотека кодирования : XviD 1.2.1 (UTC 2008-12-04)
Аудио
Идентификатор : 1
Формат : AC-3
Формат/Информация : Audio Coding 3
Расширение режима : CM (complete main)
Параметр Endianness формата : Big
Идентификатор кодека : 2000
Продолжительность : 50 м.
Вид битрейта : Постоянный
Битрейт : 192 Кбит/сек
Каналы : 2 канала
Расположение каналов : Front: L R
Частота : 48,0 КГц
Битовая глубина : 16 бит
Метод сжатия : С потерями
Размер потока : 69,0 Мбайт (10%)
Выравнивание : Разделение по промежуткам
Продолжительность промежутка : 40 мс. (1,00 видеокадр)
Время предзагрузки промежутка : 500 мс.
Скриншоты


Последний раз редактировалось: Sunnat1999 (2016-03-11 02:12), всего редактировалось 2 раз(а)

Создавать темы 25-Дек-2015 09:34

[Профиль]  [ЛС] 

LonelyAngel

Стаж: 5 лет 7 месяцев

Сообщений: 19

Здравствуйте!
Почему у меня не закачивается ваш сериал? Раздача не нуждается в помощи (Сидеров: 10)!!! А у меня закачался только 1% за много часов!

Создавать темы 17-Янв-2016 10:26

[Профиль]  [ЛС] 

LonelyAngel

Стаж: 5 лет 7 месяцев

Сообщений: 19

А сейчас вообще не закачивается!!! Помогите, пожалуйста!

Создавать темы 17-Янв-2016 10:28

[Профиль]  [ЛС] 
Показать сообщения:    
Ответить на тему

Текущее время: 20-Окт 19:33

Часовой пояс: UTC + 5



Вы не можете начинать темы
Вы не можете отвечать на сообщения
Вы не можете редактировать свои сообщения
Вы не можете удалять свои сообщения
Вы не можете голосовать в опросах
Вы не можете прикреплять файлы к сообщениям
Вы не можете скачивать файлы