Я влюбилась в До Чона | Falling for Challenge | 도전에 반하다 [6/6] [2015, романтика TVRip] [RAW] [720p]

Ответить на тему
 

Jasur S ®

Стаж: 4 года 5 месяцев

Сообщений: 110

Симпатии: 111

-Я влюбилась в До Чона | Falling for Challenge | 도전에 반하다
-
Страна: Южная Корея
Жанр: романтика
Год выпуска: 2015
Продолжительность: 6/6 ~ по 13 минут
Cубтитры: русские
Оригинальная аудиодорожка: корейский
-
Режиссер: Ли Хён Мин
В ролях: Чан Ю Сан, Ким Со Ын, Сюмин, Чан Хи Рён
Описание: Молодежная веб-драма, рассказывающая о двух молодых влюбленных, являющихся членами хобби-клуба под названием "One Plus". Сюмин сыграет роль На До Чона, яркого парня, подрабатывающего клоуном, так как он искренне любит веселить людей. Ким Со Ын досталась роль Бан Ха Ны, девушки, мечтающей открыть собственный фургончик с едой, которая борется против закрытия клуба.
-
-Качество видео: TVRip
Формат видео: MP4
Видео: MPEG4 Video 1280x720 23.977fps 3504kbps [V: mpeg4 simple profile, yuv420p, 1280x720, 3504 kb/s]
Аудио: AAC 44100Hz stereo 127kbps [A: SoundHandler (aac lc, 44100 Hz, stereo, 127 kb/s)]

MediaInfo

General
Complete name : E:\Dramas\[Озвучка SoftBox] Я влюбилась в До Чона\[Озвучка SoftBox] Я влюбилась в До Чона 1 серия 720p.mp4
Format : MPEG-4
Format profile : Base Media
Codec ID : isom
File size : 351 MiB
Duration : 13mn 29s
Overall bit rate mode : Variable
Overall bit rate : 3 636 Kbps
Writing application : Lavf55.12.100
Video
ID : 1
Format : MPEG-4 Visual
Format settings, BVOP : No
Format settings, QPel : No
Format settings, GMC : No warppoints
Format settings, Matrix : Default (H.263)
Codec ID : 20
Duration : 13mn 29s
Bit rate mode : Variable
Bit rate : 3 505 Kbps
Maximum bit rate : 4 419 Kbps
Width : 1 280 pixels
Height : 720 pixels
Display aspect ratio : 16:9
Frame rate mode : Constant
Frame rate : 23.976 fps
Color space : YUV
Chroma subsampling : 4:2:0
Bit depth : 8 bits
Scan type : Progressive
Compression mode : Lossy
Bits/(Pixel*Frame) : 0.159
Stream size : 338 MiB (96%)
Writing library : Lavc55.18.102
Audio
ID : 2
Format : AAC
Format/Info : Advanced Audio Codec
Format profile : LC
Codec ID : 40
Duration : 13mn 29s
Bit rate mode : Constant
Bit rate : 128 Kbps
Channel(s) : 2 channels
Channel positions : Front: L R
Sampling rate : 44.1 KHz
Compression mode : Lossy
Stream size : 12.4 MiB (4%)

Скриншоты










Последний раз редактировалось: Jasur S (2016-01-18 19:44), всего редактировалось 2 раз(а)

Создавать темы 25-Дек-2015 10:21

[Профиль]  [ЛС] 
Показать сообщения:    
Ответить на тему

Текущее время: 25-Сен 02:19

Часовой пояс: UTC + 5



Вы не можете начинать темы
Вы не можете отвечать на сообщения
Вы не можете редактировать свои сообщения
Вы не можете удалять свои сообщения
Вы не можете голосовать в опросах
Вы не можете прикреплять файлы к сообщениям
Вы не можете скачивать файлы