В изгнании / Outcast (Ник Пауэлл) [2014 г.,боевик, Приключения, HDRip] [Лицензия]

Ответить на тему
 

Zab ®

Стаж: 6 лет 3 месяца

Сообщений: 476

Симпатии: 424

В изгнании / Outcast (2014) HDRip«Legends are born in battle»- Производство: Китай, Канада, Франция
Год Выпуска: 2014
Жанр: Боевик, Приключения
Продолжительность: 01:38:47
Перевод: Многоголосый закадровый [Лицензия]-Режиссер: Ник Пауэлл
Актеры: Николас Кейдж, Хейден Кристенсен, Лю Ифэй, Рон Смуренбург, Энди Он, Джавед Эль Берни, Фернандо Чиен, Престон Бэйкер, Байрон Лосон, Томер Оз-Описание:
Сюжет фильма разворачивается в Китае, в Средние века. Наследник императорского престола становится целью убийства у своего презираемого старшего брата и вынужден бежать. Единственное, что остается молодому принцу, – это защита его сестры при помощи воина-крестоносца (Хейден Кристенсен), которому, в свою очередь, придется смириться с собственными демонами и, сплотившись с некогда легендарным воином, ныне ставшим бандитом (Николас Кейдж), вернуть принца на его законное место на троне...-Дата мировой премьеры: 26 сентября 2014-Качество видео: HDRip
Видео кодек: Xvid
Аудио кодек: ACe
Видео: Xvid, 720x304, ~1652 kbps
Аудио: AC3, 6 ch, 448 kbps
Субтитры: Отсутствуют

MI

Общее
Полное имя : F:\B.Y3gHaHye.2014.P.HDRip.avi
Формат : AVI
Формат/Информация : Audio Video Interleave
Размер файла : 1,46 Гбайт
Продолжительность : 1 ч. 38 м.
Общий поток : 2109 Кбит/сек
Программа кодирования : VirtualDubMod 1.5.10.2 (build 2540/release)
Библиотека кодирования : VirtualDubMod build 2540/release
Видео
Идентификатор : 0
Формат : MPEG-4 Visual
Профиль формата : Advanced [email protected]
Параметр BVOP формата : 2
Параметр QPel формата : Нет
Параметр GMC формата : Без точки перехода
Параметр матрицы формата : Default (MPEG)
Идентификатор кодека : XVID
Идентификатор кодека/Подсказка : XviD
Продолжительность : 1 ч. 38 м.
Битрейт : 1652 Кбит/сек
Ширина : 720 пикселей
Высота : 304 пикселя
Соотношение сторон : 2,35:1
Частота кадров : 23,976 кадра/сек
Цветовое пространство : YUV
Субдискретизация насыщенности : 4:2:0
Битовая глубина : 8 бит
Тип развёртки : Прогрессивная
Метод сжатия : С потерями
Бит/(Пиксели*Кадры) : 0.315
Размер потока : 1,14 Гбайт (78%)
Библиотека кодирования : XviD 1.2.1 (UTC 2008-12-04)
Аудио
Идентификатор : 1
Формат : AC-3
Формат/Информация : Audio Coding 3
Расширение режима : CM (complete main)
Параметр Endianness формата : Big
Идентификатор кодека : 2000
Продолжительность : 1 ч. 38 м.
Вид битрейта : Постоянный
Битрейт : 448 Кбит/сек
Каналы : 6 каналов
Расположение каналов : Front: L C R, Side: L R, LFE
Частота : 48,0 КГц
Битовая глубина : 16 бит
Метод сжатия : С потерями
Размер потока : 317 Мбайт (21%)
Выравнивание : Разделение по промежуткам
Продолжительность промежутка : 42 мс. (1,00 видеокадр)
Время предзагрузки промежутка : 500 мс.

Скриншоты




Создавать темы 25-Дек-2015 10:26

[Профиль]  [ЛС] 
Показать сообщения:    
Ответить на тему

Текущее время: 21-Авг 15:20

Часовой пояс: UTC + 5



Вы не можете начинать темы
Вы не можете отвечать на сообщения
Вы не можете редактировать свои сообщения
Вы не можете удалять свои сообщения
Вы не можете голосовать в опросах
Вы не можете прикреплять файлы к сообщениям
Вы не можете скачивать файлы