Медики Чикаго / Chicago Med / Сезон: 1 / Серии: 1-11 из ?? (Фред Бернер, Майкл Ваксман) [2015, Драма, WEB-DLRip] (VO: BaibaKo)

Ответить на тему
 

shideb_sting ®

Стаж: 3 года 8 месяцев

Сообщений: 33

Симпатии: 62

Медики Чикаго / Chicago Med1 сезон, 1-11 серии Год выпуска: 2015
Страна: США
Жанр: Драма
Продолжительность: ~ 00:43:00
Перевод: Профессиональный (многоголосый, закадровый) BaibaKo
Режиссёр: Фред Бернер, Майкл Ваксман
В ролях: Оливер Плэтт, С. Ипейта Меркерсон, Ник Гелфусс, Йайа ДаКоста, Колин Доннелл, Брайан Ти, Торри ДеВито, Рэйчел ДиПилло, Марлайн Эффлэк, Андре Беллос
Описание: Сериал рассказывает о команде врачей, работающих в чикагской больнице. Каждый день им приходится работать в полном хаосе и разбираться с уникальными случаями.
Качество: WEB-DLRip
Формат: AVI
Видео кодек: XviD
Аудио кодек: MP3
Видео: Xvid 720x400 24fps 1 390 Kbps [V: mpeg4 simple profile, yuv420p, 720x400, 1464 kb/s]
Аудио: MP3 44100Hz stereo 256kbps [A: mp3, 44100 Hz, stereo, 256 kb/s]

Media Info

General
Complete name : Медики Чикаго 1 сезон\mediki_chikago_s1e01.avi
Format : AVI
Format/Info : Audio Video Interleave
File size : 509 MiB
Duration : 42mn 52s
Overall bit rate : 1 659 Kbps
Writing application : Lavf52.93.0
Video
ID : 0
Format : xvid
Codec ID : xvid
Duration : 42mn 52s
Bit rate : 1 390 Kbps
Width : 720 pixels
Height : 400 pixels
Display aspect ratio : 16:9
Frame rate : 24.000 fps
Bits/(Pixel*Frame) : 0.201
Stream size : 426 MiB (84%)
Audio
ID : 1
Format : MPEG Audio
Format version : Version 1
Format profile : Layer 3
Mode : Joint stereo
Codec ID : 55
Codec ID/Hint : MP3
Duration : 42mn 52s
Bit rate mode : Constant
Bit rate : 256 Kbps
Channel(s) : 2 channels
Sampling rate : 44.1 KHz
Compression mode : Lossy
Stream size : 78.5 MiB (15%)
Alignment : Aligned on interleaves
Interleave, duration : 26 ms (0.63 video frame)
Writing library : LAME3.98.4

Раздача ведется путем добавления новых серий

"Когда раздача ведётся путём добавления новых серий, при каждом добавлении создётся новый торрент. Чтобы начать докачку новой серии, пользователям необходимо сделать следующее:
(1) остановить скачивание,
(2) удалить старый торрент у себя из клиента (старые серии удалять не надо),
(3) скачать новый торрент и запустить его у себя в клиенте вместо старого, при этом указать клиенту путь в старую папку, куда и должно происходить скачивание новых серий.
Ваш клиент при этом должен произвести хеширование (проверку) старой папки (если не производит сам - помогите ему сделать это), и будет докачивать только те серии, которых у вас ещё нет. Старые серии при этом не удаляются, а продолжают раздаваться!
Eсли вы уже удалили старые серии, то предотвратить повторную закачку старых серий можно, отжав галочку в соответсвующих местах при запуске нового торрента. По возможности, желательно не удалять старые серии как можно дольше, чтобы релизёр не столько продолжал раздавать старые серии, а смог сконцентрироваться на новых.

Скриншоты







Последний раз редактировалось: shideb_sting (2016-03-12 13:28), всего редактировалось 7 раз(а)

Создавать темы 25-Дек-2015 14:30

[Профиль]  [ЛС] 

inkus

Стаж: 7 лет 3 месяца

Сообщений: 50

Симпатии: 39

огромная просьба не забрасывайте этот сериал!! мы ждем продолжения))

Создавать темы 25-Янв-2016 19:18

[Профиль]  [ЛС] 

shideb_sting ®

Стаж: 3 года 8 месяцев

Сообщений: 33

Симпатии: 62

Обновите торрент файл, добавлено 6 серия.

Создавать темы 10-Фев-2016 09:44

[Профиль]  [ЛС] 

shideb_sting ®

Стаж: 3 года 8 месяцев

Сообщений: 33

Симпатии: 62

Обновите торрент файл, добавлено 7, 8, 9 серии.

Создавать темы 01-Мар-2016 19:45

[Профиль]  [ЛС] 

shideb_sting ®

Стаж: 3 года 8 месяцев

Сообщений: 33

Симпатии: 62

Обновите торрент файл, добавлено 10 и 11 серии.

Создавать темы 12-Мар-2016 13:29

[Профиль]  [ЛС] 

Шерчик

Стаж: 4 года 8 месяцев

Сообщений: 14

Симпатии: 3

Продолжение есть или будет ?

Создавать темы 23-Май-2016 00:58

[Профиль]  [ЛС] 
Показать сообщения:    
Ответить на тему

Текущее время: 18-Авг 02:36

Часовой пояс: UTC + 5



Вы не можете начинать темы
Вы не можете отвечать на сообщения
Вы не можете редактировать свои сообщения
Вы не можете удалять свои сообщения
Вы не можете голосовать в опросах
Вы не можете прикреплять файлы к сообщениям
Вы не можете скачивать файлы