Родня (Никита Михалков) [1981, мелодрама, DVDRip]

Ответить на тему
 

Zab ®

Стаж: 6 лет 5 месяцев

Сообщений: 476

Симпатии: 424

Родня (1981) DVDRip-Год выпуска: 1981
Производство: СССР, киностудия "Мосфильм"
Жанр: Драма, комедия
Продолжительность: 01:32:27
Язык: Русский-Режиссер: Никита Михалков
Актеры: Нонна Мордюкова, Светлана Крючкова, Андрей Петров, Иван Бортник, Юрий Богатырев, Федя Стуков, Всеволод Ларионов, Никита Михалков, Александр Адабашьян, Павел Лебешев, Лариса Кузнецова, Олег Меньшиков, Сергей Газаров, Владимир Хотиненко-Описание фильма:
Фильм в иронической манере повествует о сложных взаимоотношениях близких друг другу людей. Главная героиня в простоте душевной пытается «склеить» распавшуюся семью любимой дочери. Действуя из самых добрых побуждений, она не в состоянии понять, почему ее вмешательство вызывает столь бурный протест…- -Качество видео: DVDRip
Видео данные: DivX, 1663 Кбит/с, 720x544
Аудио данные: АС3, 6 ch, 448 Кбит/с

Интересно

- Фильм снимался в городе Днепропетровске, съемки проходили в двух городских парках им. Чкалова и им. Шевченко, а так же в ресторане «Маяк».
- Эпизод, в котором у персонажа фильма внезапно звонит находящийся в его портфеле будильник, Никита Михалков использовал также в своём фильме «12».
- Римма Маркова (администратор в гостинице) в реальной жизни увлекалась карате. Этот интересный факт Никита Михалков использовал в сюжете, где героиня учила движения руками по самиздатовской книге.

MI

General
Complete name                            : D:\[Movies]\Rodnya.1981.DivX.DVDRip.avi
Format                                   : AVI
Format/Info                              : Audio Video Interleave
File size                                : 1.37 GiB
Duration                                 : 1h 32mn
Overall bit rate                         : 2 118 Kbps
Writing application                      : VirtualDubMod 1.5.4.1 (build 2178/release)
Writing library                          : VirtualDubMod build 2178/release
Video
ID                                       : 0
Format                                   : MPEG-4 Visual
Format settings, BVOP                    : 1
Format settings, QPel                    : No
Format settings, GMC                     : No warppoints
Format settings, Matrix                  : Default (H.263)
Muxing mode                              : Packed bitstream
Codec ID                                 : DX50
Codec ID/Hint                            : DivX 5
Duration                                 : 1h 32mn
Bit rate                                 : 1 663 Kbps
Width                                    : 720 pixels
Height                                   : 544 pixels
Display aspect ratio                     : 4:3
Frame rate                               : 25.000 fps
Color space                              : YUV
Chroma subsampling                       : 4:2:0
Bit depth                                : 8 bits
Scan type                                : Progressive
Compression mode                         : Lossy
Bits/(Pixel*Frame)                       : 0.170
Stream size                              : 1.07 GiB (79%)
Writing library                          : DivX 6.8.2 (UTC 2008-05-17)
Audio
ID                                       : 1
Format                                   : AC-3
Format/Info                              : Audio Coding 3
Mode extension                           : CM (complete main)
Format settings, Endianness              : Big
Codec ID                                 : 2000
Duration                                 : 1h 32mn
Bit rate mode                            : Constant
Bit rate                                 : 448 Kbps
Channel(s)                               : 6 channels
Channel positions                        : Front: L C R, Side: L R, LFE
Sampling rate                            : 48.0 KHz
Bit depth                                : 16 bits
Compression mode                         : Lossy
Delay relative to video                  : 499ms
Stream size                              : 296 MiB (21%)
Alignment                                : Split accross interleaves
Interleave, duration                     : 96 ms (2.40 video frames)
Interleave, preload duration             : 96 ms
Language                                 : Russian

Скриншоты


Создавать темы 26-Дек-2015 00:43

[Профиль]  [ЛС] 
Показать сообщения:    
Ответить на тему

Текущее время: 17-Окт 20:22

Часовой пояс: UTC + 5



Вы не можете начинать темы
Вы не можете отвечать на сообщения
Вы не можете редактировать свои сообщения
Вы не можете удалять свои сообщения
Вы не можете голосовать в опросах
Вы не можете прикреплять файлы к сообщениям
Вы не можете скачивать файлы