Волшебники / The Magicians / Сезон: 1 / Серии: 1-13 из 13 (Скотт Смит, Джен Элиасберг, Джеймс Л. Конуэй, Гай Норман Би, Майк Кэхилл, Джон Скотт, Билл) [2015-2016, Ужасы, фэнтези, драма, детектив, HDTVRip] (MVO : LostFilm)

Ответить на тему
 

igor1968 ®

Стаж: 5 лет 7 месяцев

Сообщений: 366

Симпатии: 197

Волшебники / The Magicians
Год выпуска: 2015
Страна:
Жанр: Ужасы, фэнтези, драма, детектив
Продолжительность: 00:51:47.190
Перевод: Профессиональный многоголосый закадровый
Доп. инфо о переводе:
Режиссёр: Скотт Смит, Джен Элиасберг, Джеймс Л. Конуэй, Гай Норман Би, Майк Кэхилл, Джон Скотт, Билл
В ролях: Джейсон Ральф (Квентин Колдуотер), Стелла Маив (Джулия Уикер), Оливия Тейлор Дадли (Элис Куин), Хейл Эйплмен (Элиот Во), Арджун Гупта (Пенни), Саммер Бишил (Марго Хэнсон)
Жизнь Квентина Колдуотера и Джулии Уикер переворачивается с ног на голову, когда им выпадает шанс пройти собеседование в секретный университет Брейкбиллс. К своему удивлению они обнаруживают, что вместо привычного экзамена им предлагают выполнить тест на магические способности. Молодые люди начинают догадываться, что по соседству с обычными людьми в Нью-Йорке живут волшебники и чародеи. Квентин успешно проходит испытание, но его подруге не удается произвести впечатление на преподавателей университета. Они решают стереть ее память о собеседовании, однако сама судьба противится тому, чтобы Джулия окончательно распрощалась с миром волшебства. Тем временем в стенах Брейкбиллса Колдуотер начинает постигать секреты магического искусства и развивать свои удивительные способности. Квентин еще не знает, что мир магии, который представляется всем волшебным и притягательным, скрывает ужасные тайны...
Доп. информация:
О сериале "Волшебники"
«Волшебники» — телевизионная адаптация популярной книжной трилогии Льва Гроссмана о студентах секретного университета магии и колдовства Брейкбиллс. Литературный первоисточник вошел в список бестселлеров The New York Times и заслужил сравнение с такой классикой жанра фэнтези, как «Хроники Нарнии» и серия романов о Гарри Поттере. Партнером канала Syfy в работе над сериалом стал номинант на премию «Оскар» Майкл Лондон («Иллюзионист»), а пост шоураннера «Волшебников» заняла Сера Гэмбл («Сверхъестественное»/Supernatural). Мрачная и чарующая атмосфера мира магии, харизматичные герои и лихо закрученный сюжет придутся по вкусу как поклонникам творчества Гроссмана, так и любителям интригующих детективов, леденящих душу триллеров и взрослого фэнтези.-

Список серий

Запрещённое волшебство (Unauthorized Magic)
Источник магии (The Source of Magic)
Последствия продвинутой магии (Consequences of Advanced Spellcasting)
Мир в стенах (The World in the Walls)
Исцеление, серьезное и не очень (Mendings, Major and Minor)
Нестандартное применение силы (Impractical Applications )
Случай у Маяковского (The Mayakovsky Circumstances)
Пронзённое сердце (The Strangled Heart)
Кабинет писателя (The Writing Room)
Возвращение домой (Homecoming)
Исцеляющая боевая магия (Remedial Battle Magic)
Тридцать девять могил (Thirty-Nine Graves)
Вы принесли мне пироженки? (Have You Brought Me Little Cakes)
-премьера 16 декабря 2015, ...- -

Внимание! Раздача ведётся путём добавления новых серий

Внимание! Раздача ведётся путём добавления новых серий; при каждом добавлении создётся новый торрент. Чтобы начать докачку новой серии, пользователям необходимо сделать следующее:
1) остановить скачивание,
2) удалить старый торрент у себя из клиента (старые серии удалять не надо),
3) скачать новый торрент и запустить его у себя в клиенте вместо старого, при этом указать клиенту путь в старую папку куда и должно происходить скачивание новых серий.
Ваш клиент при этом должен произвести хеширование (проверку) старой папки (если не производит сам - помогите ему сделать это), и будет докачивать только те серии которых у вас ещё нет. Старые серии при этом не удаляются, а продолжают раздаваться!
Eсли вы уже удалили старые серии, то предотвратить повторную закачку старых серий можно, отжав галочку в соответсвующих местах при запуске нового торрента.
-Добавлена 13 серия
перекачайте торрент-Качество: HDTVRip
Формат: AVI
Видео кодек: XviD
Аудио кодек: MP3
Видео: 720x400 (16:9), 23.976 fps, XviD build 50 ~1 297 kbps avg, 0.188 bit/pixel
Аудио: 48 kHz, MPEG Layer 3, 2 ch, ~ 192 kbps avg

MediaInfo

General
Complete name : The.Magicians.S01E01.rus.LostFilm.TV.avi
Format : AVI
Format/Info : Audio Video Interleave
File size : 578 MiB
Duration : 51mn 47s
Overall bit rate mode : Variable
Overall bit rate : 1 560 Kbps
Writing application : Nandub v1.0rc2
Writing library : Nandub build 1853/release
Video
ID : 0
Format : MPEG-4 Visual
Format profile : Advanced [email protected]
Format settings, BVOP : No
Format settings, QPel : No
Format settings, GMC : No warppoints
Format settings, Matrix : Default (H.263)
Codec ID : XVID
Codec ID/Hint : XviD
Duration : 51mn 47s
Bit rate : 1 297 Kbps
Width : 720 pixels
Height : 400 pixels
Display aspect ratio : 16:9
Frame rate : 23.976 fps
Color space : YUV
Chroma subsampling : 4:2:0
Bit depth : 8 bits
Scan type : Progressive
Compression mode : Lossy
Bits/(Pixel*Frame) : 0.188
Stream size : 480 MiB (83%)
Writing library : XviD 1.2.1 (UTC 2008-12-04)
Audio
ID : 1
Format : MPEG Audio
Format version : Version 1
Format profile : Layer 3
Mode : Joint stereo
Mode extension : MS Stereo
Codec ID : 55
Codec ID/Hint : MP3
Duration : 51mn 47s
Bit rate mode : Variable
Bit rate : 192 Kbps
Channel(s) : 2 channels
Sampling rate : 48.0 KHz
Compression mode : Lossy
Stream size : 71.1 MiB (12%)
Alignment : Aligned on interleaves
Writing library : LAME3.97b
Encoding settings : -m j -V 4 -q 3 -lowpass 18.6 --abr 192

Скриншоты меню

- -- -


Последний раз редактировалось: igor1968 (2016-04-21 22:59), всего редактировалось 27 раз(а)

Создавать темы 26-Дек-2015 03:09

[Профиль]  [ЛС] 

IQBOT

Стаж: 6 лет 8 месяцев

Сообщений: 449

Симпатии: 81

Для тех, кто отчаялся получить письмо из Хогвартса.

Создавать темы 28-Янв-2016 14:21

[Профиль]  [ЛС] 

[email protected]

Стаж: 6 лет 8 месяцев

Сообщений: 138

Симпатии: 10

Еще бы оригинальная дорожка была и вообще сказка)

Создавать темы 31-Янв-2016 16:26

[Профиль]  [ЛС] 

igor1968 ®

Стаж: 5 лет 7 месяцев

Сообщений: 366

Симпатии: 197

Настройте торрент клиент как в gif

gif

Чем больше будете отдавать тем быстрее скачаете!


Последний раз редактировалось: igor1968 (2016-03-30 01:29), всего редактировалось 1 раз

Создавать темы 11-Фев-2016 21:15

[Профиль]  [ЛС] 

Бахытберген

Стаж: 4 года 5 месяцев

Сообщений: 66

Симпатии: 18

надеюсь не буду жалеть о загрузке)

Создавать темы 25-Мар-2016 13:34

[Профиль]  [ЛС] 

Бахытберген

Стаж: 4 года 5 месяцев

Сообщений: 66

Симпатии: 18

вот и скачал и посмотрел) сразу скажу 18+. Слишком откровенный сериал, интимные отношения, однополая ориентация, но интересный.

Создавать темы 26-Мар-2016 02:33

[Профиль]  [ЛС] 
Показать сообщения:    
Ответить на тему

Текущее время: 18-Окт 03:17

Часовой пояс: UTC + 5



Вы не можете начинать темы
Вы не можете отвечать на сообщения
Вы не можете редактировать свои сообщения
Вы не можете удалять свои сообщения
Вы не можете голосовать в опросах
Вы не можете прикреплять файлы к сообщениям
Вы не можете скачивать файлы