Генералы песчаных карьеров / The Sandpit Generals (Холл Бартлетт) [1971 г.,США, Драма, DVDRip]

Ответить на тему
 

фазилов ®

Стаж: 3 года 8 месяцев

Сообщений: 310

Симпатии: 344

ГЕНЕРАЛЫ ПЕСЧАНЫХ КАРЬЕРОВ / The Sandpit Generals
Год выпуска: 1971
Страна: США
Жанр: Драма
Продолжительность: 01:30:02
Перевод: Фильм дублирован на киностудии "Мосфильм"
Режиссер: Холл Бартлетт
В ролях: Кент Лэйн, Тиша Стерлинг, Доривал Каимми, Джон Рубинштейн, Алехандро Рей, Буч Патрик, Адемар да Силва, Алойзиу ди Оливейра, Марк Де Вриз, Джимми Фрейзер, Фредди Гедеон, Уильям Хобсон, Гильерме Ламунье
Роли дублировали: Валентин Грачев, Евгений Жариков, Лев Прыгунов, П. Голик, Роза Макагонова, Феликс Яворский, Геннадий Морозов
Описание: В народе их называют — «генералы песчаных карьеров». Эти парни готовы сражаться за кусок хлеба, и не позавидовать тому, кто окажется у них на пути — эти мальчишки опасны и жестки. Однако и у них есть сердца, есть желание любить и быть любимыми. Поэтому, когда беспризорники знакомятся с девушкой Дорой и ее братом, которых родственники выгнали на улицу, «капитаны песка» дают новым сиротам кров, еду и защиту. Добрая, отзывчивая и бесстрашная Дора быстро вливается в мужской коллектив, заменяя одиноким мальчишкам и сестру, и мать. Вместе они совершают немало дерзких ограблений, не подозревая, что дни их бандитской «коммуны» сочтены…

Доп. информация: По роману Жоржи Амаду "Капитаны песка".
Фильм премирован на VII международном кинофестивале в Москве в 1971 году.
Номинация: Золотой приз.

Качество: DVDRip
Формат: AVI
Видео кодек: XviD
Аудио кодек: AC3
Видео: XviD, 864x480, Bit rate 2124 Кб/с, 25 fps
Аудио: AC3, Bit rate 128 Кб/с , 2 ch, 48 КГц

Mediainfo

General
Complete name : D:\Мои релизы\Генералы песчаных карьеров.1971.DVDrip.avi
Format : AVI
Format/Info : Audio Video Interleave
Format profile : OpenDML
File size : 1.42 GiB
Duration : 1h 30mn
Overall bit rate : 2 265 Kbps
Writing application : Lavf54.63.104
Video
ID : 0
Format : xvid
Codec ID : xvid
Duration : 1h 30mn
Bit rate : 2 124 Kbps
Width : 864 pixels
Height : 480 pixels
Display aspect ratio : 16:9
Frame rate : 25.000 fps
Bits/(Pixel*Frame) : 0.205
Stream size : 1.34 GiB (94%)
Audio
ID : 1
Format : AC-3
Format/Info : Audio Coding 3
Mode extension : CM (complete main)
Format settings, Endianness : Big
Codec ID : 2000
Duration : 1h 30mn
Bit rate mode : Constant
Bit rate : 128 Kbps
Channel(s) : 2 channels
Channel positions : Front: L R
Sampling rate : 48.0 KHz
Bit depth : 16 bits
Compression mode : Lossy
Stream size : 82.4 MiB (6%)
Alignment : Aligned on interleaves
Interleave, duration : 32 ms (0.80 video frame)

Скриншоты






Последний раз редактировалось: фазилов (2015-12-26 13:54), всего редактировалось 1 раз

Создавать темы 26-Дек-2015 13:27

[Профиль]  [ЛС] 

фазилов ®

Стаж: 3 года 8 месяцев

Сообщений: 310

Симпатии: 344

ai Возможны перерывы в раздаче в связи с частыми отключениями электроэнергии. ai aa TEREDO включён aa

Создавать темы 26-Дек-2015 13:47

[Профиль]  [ЛС] 
Показать сообщения:    
Ответить на тему

Текущее время: 23-Окт 05:31

Часовой пояс: UTC + 5



Вы не можете начинать темы
Вы не можете отвечать на сообщения
Вы не можете редактировать свои сообщения
Вы не можете удалять свои сообщения
Вы не можете голосовать в опросах
Вы не можете прикреплять файлы к сообщениям
Вы не можете скачивать файлы